Моя геройская академия: Восхождение героев (фильм второй) / Boku no Hero Academia: Heroes Rising (2019) BDRip | Flarrow Films

Reply to topic
 
Author Message

Monk ®

Gender: Male

Longevity: 1 year 10 months

Posts: 13006

Location: Казань

Post 14-Sep-2020 19:07

[Quote]

Моя геройская академия: Восхождение героев (фильм второй) / Boku no Hero Academia: Heroes Rising Год выпуска: 2019
Жанр: Приключения, сёнэн, комедия, фэнтези, полнометражный
Выпущено: Япония, BONES
Режиссер: Кэндзи Нагасаки
В ролях: Дайки Ямасита, Кэнта Миякэ, Нобухико Окамото, Аянэ Сакура, Юки Кадзи, Кайто Исикава, Рё Хирохаси, Аой Юки, Тосики Масуда, Марина Иноуэ, Ёсимаса Хосоя, Тасуку Хатанака, Косукэ Кувано, Кэй Синдо, Эри Китамура, Масакадзу Нисида, Дзюнъити Сувабэ, Хироюки Ёсино, Косукэ Миёси, Киётака Фурусима, Каори Надзука, Тору Нара, Масамити Китада, Синносукэ Огами, Сюхэй Мацуда
О фильме: После учебы Изуку Мидория вступает в элитный отряд, уверенный в том, что сумеет доказать свои профессиональные навыки. Отряду приходится преследовать грузовик, в котором находятся злодеи. Задержание проходит успешно, а следующий этап должен героев озадачить, ведь создан наркотик, призванный отнимать их способности.
Качество: BDRip
Видео: XviD, 1610 Кбит/с, 720x400
Аудио: Русский (AC3, 6 ch, 384 Кбит/с)
Продолжительность: 01:43:59
Перевод: Дублированный [Flarrow Films]

Скриншоты



MediaInfo

General
Complete name :[Deadmau- RAWS] My.Hero.Academia-Heroes.Rising.2019.BDRip.Deadmauvlad.1.46.GB.avi
Format : AVI
Format/Info : Audio Video Interleave
File size : 1.45 GiB
Duration : 1 h 43 min
Overall bit rate : 2 003 kb/s
Movie name : [Deadmau- RAWS] My.Hero.Academia-Heroes.Rising.2019.BDRip.Deadmauvlad.1.46.GB
Director : Encoder by Deadmauvlad
Genre : фэнтези, приключения
Writing application : VirtualDubMod 1.5.10.3 | www.virtualdub-fr.org || (build 2550/release)
Original source form/Name : Аниме
Copyright : Encoder by Deadmauvlad
Comment : Encoder by Deadmauvlad
Video
ID : 0
Format : MPEG-4 Visual
Format profile : Advanced Simple@L5
Format settings : BVOP1 / Custom Matrix
Format settings, BVOP : 1
Format settings, QPel : No
Format settings, GMC : No warppoints
Format settings, Matrix : Custom
Codec ID : XVID
Codec ID/Hint : XviD
Duration : 1 h 43 min
Bit rate : 1 610 kb/s
Width : 720 pixels
Height : 400 pixels
Display aspect ratio : 16:9
Frame rate : 23.976 (24000/1001) FPS
Color space : YUV
Chroma subsampling : 4:2:0
Bit depth : 8 bits
Scan type : Progressive
Compression mode : Lossy
Bits/(Pixel*Frame) : 0.233
Stream size : 1.17 GiB (80%)
Writing library : XviD 73
Audio
ID : 1
Format : AC-3
Format/Info : Audio Coding 3
Commercial name : Dolby Digital
Codec ID : 2000
Duration : 1 h 43 min
Bit rate mode : Constant
Bit rate : 384 kb/s
Channel(s) : 6 channels
Channel layout : L R C LFE Ls Rs
Sampling rate : 48.0 kHz
Frame rate : 31.250 FPS (1536 SPF)
Bit depth : 16 bits
Compression mode : Lossy
Stream size : 286 MiB (19%)
Alignment : Split accross interleaves
Interleave, duration : 42 ms (1.00 video frame)
Interleave, preload duration : 500 ms
[Profile] [PM]
Display posts:    
Reply to topic

Current time is: 24-Sep 11:13

All times are UTC + 3



You cannot post new topics in this forum
You cannot reply to topics in this forum
You cannot edit your posts in this forum
You cannot delete your posts in this forum
You cannot vote in polls in this forum
You cannot attach files in this forum
You cannot download files in this forum