Простоквашино [1 сезон: 1-10 серии из 30] (2018) WEB-DLRip от GeneralFilm

Ответить на тему
 
Автор Сообщение

vsobbol ®

Пол: Мужской

Стаж: 2 месяца 6 дней

Сообщений: 85

Откуда: Донецк

Создавать темы 10-Дек-2018 08:21

[Цитировать]

Простоквашино
Год выпуска: 2018
Жанр: Мультсериал, сказка, детский, семейный
Выпущено: Россия, Студия "Союзмультфильм"
Режиссер: Михаил Солошенко
В ролях: Антон Табаков, Юлия Меньшова, Иван Охлобыстин, Ольга Голованова, Андрей Тенетко, Гарик Сукачёв, Алексей Онежен
О фильме: Казалось, никакие бури внешнего мира не смогут поколебать привычный и размеренный ход деревенской жизни Простоквашино. Время как будто застыло. Все так же каждое утро Матроскин дегустирует свежее молоко, полученное от своей любимицы — коровы Мурки. Все так же Шарик проводит время в окрестных лесах, «фотоохотясь» на редкую дичь. Правда, теперь он научился выкладывать фотографии своей добычи в интернет. И все так же, при каждой возможности, их навещает Дядя Федор. И тогда они весело и дружно проводят время своей мужской компанией. И когда им уже стало казаться, что так будет всегда, внезапно все изменилось с появлением одной маленькой девочки, родной сестры Дяди Фёдора. И имя этой девочки — Вера Павловна. Союзмультфильм планирует снять несколько десятков новых эпизодов, которые станут продолжением серии анимационных лент Трое из Простоквашино. Задача нового проекта — показать, как изменилось "Простоквашино" вместе со страной, все-таки прошло 20 лет, а также вовлечь детей в новые приключения персонажей, которые говорят о вечных ценностях, таких как семья, дом, забота о близких - сказала председатель правления Союзмультфильма Юлиана Слащева. В период с 2018 по 2020 год в свет выйдет 30 серий мультфильма о деревне Простоквашино и ее героях.
Качество: WEB-DLRip
Видео: XviD, ~ 1550 Кбит/с, 720x400
Аудио: АС3, 2 ch, 192 Кбит/с
Продолжительность: 10 ~ 00.06.30
Перевод: Не требуется
Cубтитры: нет

Скриншоты

MediaInfo

General
Complete name : D:\Razdachi\Prostokvashino.XviD.WEB-DLRip.GeneralFilm\09_Простоквашино.avi
Format : AVI
Format/Info : Audio Video Interleave
File size : 81.6 MiB
Duration : 6 min 30 s
Overall bit rate : 1 755 kb/s
Writing application : VirtualDubMod 1.5.10.3 | www.virtualdub-fr.org || (build 2550/release)
Writing library : VirtualDubMod build 2550/release
Video
ID : 0
Format : MPEG-4 Visual
Format profile : Advanced Simple@L5
Format settings, BVOP : 1
Format settings, QPel : No
Format settings, GMC : No warppoints
Format settings, Matrix : Custom
Codec ID : XVID
Codec ID/Hint : XviD
Duration : 6 min 30 s
Bit rate : 1 553 kb/s
Width : 720 pixels
Height : 400 pixels
Display aspect ratio : 16:9
Frame rate : 25.000 FPS
Color space : YUV
Chroma subsampling : 4:2:0
Bit depth : 8 bits
Scan type : Progressive
Compression mode : Lossy
Bits/(Pixel*Frame) : 0.216
Stream size : 72.2 MiB (88%)
Writing library : XviD 73
Audio
ID : 1
Format : AC-3
Format/Info : Audio Coding 3
Format settings, Endianness : Big
Codec ID : 2000
Duration : 6 min 30 s
Bit rate mode : Constant
Bit rate : 192 kb/s
Channel(s) : 2 channels
Channel positions : Front: L R
Sampling rate : 48.0 kHz
Frame rate : 31.250 FPS (1536 SPF)
Bit depth : 16 bits
Compression mode : Lossy
Stream size : 8.93 MiB (11%)
Alignment : Split accross interleaves
Interleave, duration : 40 ms (1.00 video frame)
Interleave, preload duratio : 500 ms
Service kind : Complete Main

Список серий

01. Возвращение в Простоквашино 1
02. Возвращение в Простоквашино 2
03. Сезон дождей
04. Диета Матроскина
05. Шарик хочет телефон
06. Чудовище из Простоквашино
07. Ген героя
08. Ненастоящий детектив
09. Мама и Тама
10. Как бы не было зимы

Внимание! Раздача ведётся путём добавления новых серий

Раздача ведётся путём добавления новых серий, при каждом добавлении создаётся новый торрент. Чтобы начать докачку новой серии, пользователям необходимо сделать следующее:
- Остановить скачивание.
- Удалить старый торрент у себя из клиента (старые серии удалять не надо).
- Скачать новый торрент и запустить его у себя в клиенте вместо старого, при этом указать клиенту путь в старую папку куда и должно происходить скачивание новых серий.
Ваш клиент при этом должен произвести хеширование (проверку) старой папки (если не производит сам - помогите ему сделать это), и будет докачивать только те серии которых у вас ещё нет. Старые серии при этом не удаляются, а продолжают раздаваться!
Если вы уже удалили старые серии, то предотвратить повторную закачку старых серий можно, отжав галочку в соответствующих местах при запуске нового торрента. По возможности, желательно не удалять старые серии как можно дольше, чтобы релизер не столько продолжал раздавать старые серии, а смог сконцентрироваться на новых.
Релиз от:
[Профиль] [ЛС]
Показать сообщения:    
Ответить на тему

Текущее время: 22-Янв 00:01

Часовой пояс: UTC + 3



Вы не можете начинать темы
Вы не можете отвечать на сообщения
Вы не можете редактировать свои сообщения
Вы не можете удалять свои сообщения
Вы не можете голосовать в опросах
Вы не можете прикреплять файлы к сообщениям
Вы не можете скачивать файлы