Женский Квартал [1-2 сезоны: 1-16 выпуски] (2018-2020) WEBRip от GeneralFilm

Reply to topic
 
Author Message

vsobbol ®

Gender: Male

Longevity: 1 year 11 months

Posts: 732

Location: Донецк

Post 04-Oct-2020 23:55

[Quote]

Женский Квартал
Год выпуска: 2018-2020
Жанр: Юмористическое шоу, концерт, сатира
Выпущено: Украина, Студия «Kвартал 95»
Режиссер: Студия «Kвартал 95»
В ролях: Елена Кравец, Вера Кекелия, Марта Адамчук, Элина Мбани, Лали Эргемлидзе, Ольга Жуковцова-Кияшко, Анастасия Оруджева, Татьяна Песик, Ирина Сопонару, Лера Товстолес, Екатерина Никитина, Александра Машлятина, Настя Короткая, Анастасия Евтушенко.
О фильме: Студия «Квартал 95» придумала и запустила в производство новый масштабный развлекательный телепроект «Женский Квартал». Съемки первых выпусков состоялись в мае в Турции, в рамках ежегодного фестиваля «Весело 2018». «Женский Квартал» – это большое концертное юмористическое и музыкальное шоу, в котором правят бал представительницы прекрасного пола. Как говорят авторы нового проекта – это «территория женщин, где они главные, они всегда правы и элегантно шутят о том, что им на самом деле интересно». 14 красивых, умных и талантливых актрис разных жанров будут юморить о том, что важно для каждой современной женщины – о семье, замужестве, быте, красоте, любви и сексе, и, конечно, о мужчинах. Проект будет насыщен яркими танцевальными и вокальными номерами, юмористическими сценками и остроумными шутками, которые помогут с присущей женщинам легкостью посмотреть на актуальные события
Качество: WEBRip
Видео: XviD build 73, 720x400 (16:9), 25.000 fps, ~ 1700 Kbps (0.250 bit/pixel)
Аудио: 44.0 kHz, AC3, 2/0 ch, 192 kbps
Продолжительность: 16 x ~ 01:40:00
Перевод: Не требуется
Cубтитры: нет

Скриншоты

MediaInfo

General
Complete name : D:\Razdachi\Zhenskij.Kvartal.XviD.WEBRip.GeneralFilm\s01.Zhenskij.Kvartal.e01.avi
Format : AVI
Format/Info : Audio Video Interleave
File size : 1.45 GiB
Duration : 1 h 48 min
Overall bit rate : 1 919 kb/s
Writing application : VirtualDubMod 1.5.10.3 | www.virtualdub-fr.org || (build 2550/release)
Writing library : VirtualDubMod build 2550/release
Video
ID : 0
Format : MPEG-4 Visual
Format profile : Advanced Simple@L5
Format settings : BVOP1 / Custom Matrix
Format settings, BVOP : 1
Format settings, QPel : No
Format settings, GMC : No warppoints
Format settings, Matrix : Custom
Codec ID : XVID
Codec ID/Hint : XviD
Duration : 1 h 48 min
Bit rate : 1 717 kb/s
Width : 720 pixels
Height : 400 pixels
Display aspect ratio : 16:9
Frame rate : 25.000 FPS
Color space : YUV
Chroma subsampling : 4:2:0
Bit depth : 8 bits
Scan type : Progressive
Compression mode : Lossy
Bits/(Pixel*Frame) : 0.238
Stream size : 1.30 GiB (89%)
Writing library : XviD 73
Audio
ID : 1
Format : AC-3
Format/Info : Audio Coding 3
Commercial name : Dolby Digital
Codec ID : 2000
Duration : 1 h 48 min
Bit rate mode : Constant
Bit rate : 192 kb/s
Channel(s) : 2 channels
Channel layout : L R
Sampling rate : 44.1 kHz
Frame rate : 28.711 FPS (1536 SPF)
Compression mode : Lossy
Stream size : 149 MiB (10%)
Alignment : Split across interleaves
Interleave, duration : 40 ms (1.00 video frame)
Interleave, preload duratio : 500 ms
Service kind : Complete Main

Внимание! Раздача ведётся путём добавления новых выпусков

Раздача ведётся путём добавления новых серий, при каждом добавлении создаётся новый торрент. Чтобы начать докачку новой серии, пользователям необходимо сделать следующее:
- Остановить скачивание.
- Удалить старый торрент у себя из клиента (старые серии удалять не надо).
- Скачать новый торрент и запустить его у себя в клиенте вместо старого, при этом указать клиенту путь в старую папку куда и должно происходить скачивание новых серий.
Ваш клиент при этом должен произвести хеширование (проверку) старой папки (если не производит сам - помогите ему сделать это), и будет докачивать только те серии которых у вас ещё нет. Старые серии при этом не удаляются, а продолжают раздаваться!
Если вы уже удалили старые серии, то предотвратить повторную закачку старых серий можно, отжав галочку в соответствующих местах при запуске нового торрента. По возможности, желательно не удалять старые серии как можно дольше, чтобы релизер не столько продолжал раздавать старые серии, а смог сконцентрироваться на новых.
Релиз от:
[Profile] [PM]
Display posts:    
Reply to topic

Current time is: 25-Oct 08:41

All times are UTC + 3



You cannot post new topics in this forum
You cannot reply to topics in this forum
You cannot edit your posts in this forum
You cannot delete your posts in this forum
You cannot vote in polls in this forum
You cannot attach files in this forum
You cannot download files in this forum