Преследование / Bumperkleef (2019) BDRip-AVC [Dub] от R.G.Generalfilm | iTunes

Reply to topic
 
Author Message

HardwareMining ®

Gender: Male

Longevity: 1 year

Posts: 48

Post 08-Oct-2020 19:04

[Quote]

Преследование / Bumperkleef Год выпуска: 2019
Жанр: Ужасы, триллер
Выпущено: Нидерланды
Режиссер: Лодевейк Крейнс
В ролях: Ерун Шпиценбергер (Hans), Анник Фейфер (Diana), Розмарин ван дер Хук (Milou), Лиз Вергер (Robine), Вилем де Вольф (Ed), Труус те Селле (Trudy), Хьюберт Фермин (Joop), Тим Линде (Jos), Питер Бланкенстейн (Wouter), Стэйси Матла (Spelend kind), Леви Пенрис (Boy playing on street, в титрах не указан)
О фильме: Молодая семья отправляется в путешествие на автомобиле. Уверенный в себе отец семейства совершает опасный маневр, подгоняя нерасторопного водителя минивэна. Однако такая дерзость не остается безнаказанной, и минивэн начинает преследование обидчика. Никто не мог представить, что эта поездка для всей семьи превратится в настоящую борьбу за жизнь.
Мировая премьера: 30 сентября 2019 (Нидерланды)

Качество: BDRip-AVC
Видео: AVC, 1024x428 (2.40:1), 2070 kbps, 24 fps, 0,197 bpp
Аудио: русский, AC3, 5.1, 48 kHz, 384 kbps CBR
Продолжительность: 01:25:19
Перевод / Озвучка: Дублированный [iTunes]
Субтитры: Нет

Скриншоты

MediaInfo

General
Unique ID : 245936552279147264387704570460917002536 (0xB905A8342034BFA8A6E70F8BD65CF128)
Complete name : G:\GF\Bumperkleef.2019.BDRip.AVC.Rip.by.HardwareMining.R.G.Generalfilm.mkv
Format : Matroska
Format version : Version 4 / Version 2
File size : 1.46 GiB
Duration : 1 h 25 min
Overall bit rate : 2 455 kb/s
Movie name : Rip.by.HardwareMining.R.G.Generalfilm
Encoded date : UTC 2020-08-29 16:38:37
Writing application : mkvmerge v6.8.0 ('Theme for Great Cities') 64bit built on Mar 2 2014 21:34:26
Writing library : libebml v1.3.0 + libmatroska v1.4.1
Cover : Yes
Attachments : cover.jpg
Video
ID : 1
Format : AVC
Format/Info : Advanced Video Codec
Format profile : High@L4.1
Format settings, CABAC : Yes
Format settings, ReFrames : 10 frames
Codec ID : V_MPEG4/ISO/AVC
Duration : 1 h 25 min
Bit rate : 2 070 kb/s
Width : 1 024 pixels
Height : 428 pixels
Display aspect ratio : 2.40:1
Frame rate mode : Constant
Frame rate : 24.000 FPS
Color space : YUV
Chroma subsampling : 4:2:0
Bit depth : 8 bits
Scan type : Progressive
Bits/(Pixel*Frame) : 0.197
Stream size : 1.21 GiB (82%)
Writing library : x264 core 148 r2638 7599210
Encoding settings : cabac=1 / ref=10 / deblock=1:-2:-1 / analyse=0x3:0x113 / me=umh / subme=11 / psy=1 / psy_rd=0.00:0.15 / mixed_ref=1 / me_range=32 / chroma_me=1 / trellis=2 / 8x8dct=1 / cqm=0 / deadzone=21,11 / fast_pskip=0 / chroma_qp_offset=-3 / threads=6 / lookahead_threads=1 / sliced_threads=0 / nr=0 / decimate=0 / interlaced=0 / bluray_compat=0 / constrained_intra=0 / bframes=10 / b_pyramid=2 / b_adapt=2 / b_bias=0 / direct=1 / weightb=1 / open_gop=0 / weightp=2 / keyint=240 / keyint_min=23 / scenecut=40 / intra_refresh=0 / rc_lookahead=40 / rc=2pass / mbtree=0 / bitrate=2070 / ratetol=1.0 / qcomp=0.65 / qpmin=0 / qpmax=69 / qpstep=4 / cplxblur=20.0 / qblur=0.5 / vbv_maxrate=50000 / vbv_bufsize=65500 / nal_hrd=none / filler=0 / ip_ratio=1.40 / pb_ratio=1.30 / aq=1:2.00
Language : English
Default : Yes
Forced : No
Audio
ID : 2
Format : AC-3
Format/Info : Audio Coding 3
Mode extension : CM (complete main)
Format settings, Endianness : Big
Codec ID : A_AC3
Duration : 1 h 25 min
Bit rate mode : Constant
Bit rate : 384 kb/s
Channel(s) : 6 channels
Channel positions : Front: L C R, Side: L R, LFE
Sampling rate : 48.0 kHz
Frame rate : 31.250 FPS (1536 spf)
Compression mode : Lossy
Stream size : 234 MiB (16%)
Title : iTunes
Language : Russian
Default : Yes
Forced : No
Menu
00:00:00.000 : de:Глава 01
00:10:21.000 : de:Глава 02
00:19:33.000 : de:Глава 03
00:30:24.000 : de:Глава 04
00:41:19.000 : de:Глава 05
00:52:08.000 : de:Глава 06
01:01:40.000 : de:Глава 07
01:13:35.000 : de:Глава 08
01:21:02.000 : de:Глава 09
Релиз от:
[Profile] [PM]
Display posts:    
Reply to topic

Current time is: 25-Oct 08:07

All times are UTC + 3



You cannot post new topics in this forum
You cannot reply to topics in this forum
You cannot edit your posts in this forum
You cannot delete your posts in this forum
You cannot vote in polls in this forum
You cannot attach files in this forum
You cannot download files in this forum