Голос [9 сезон: 1-3 выпуски из 13] (2020) HDTVRip от Files-х

Reply to topic
 
Author Message

bond74 ®

Gender: Male

Longevity: 1 year 11 months

Posts: 916

Post 11-Oct-2020 19:23

[Quote]

Голос
Год выпуска: 2020
Жанр: Музыка, концерт
Выпущено: Россия, Первый канал, Красный квадрат, Talpa Productions
Ведущий: Дмитрий Нагиев
О фильме: Один из самых ярких шоу-проектов в очередной раз продемонстрирует невероятные результаты от альянса обладателей незаурядных голосов и опытных наставников, позволяющих талантам раскрыться и расцвести. Великолепные голоса, уникальные музыкальные постановки, молодые и не очень участники, которым придется испытать радость творчества, счастье триумфа и слезы поражения – все это в полной мере представлено в новом сезоне «Голоса» - проекта, дающего каждому желающему уникальный шанс проявить себя в вокальном творчестве.
Качество: HDTVRip
Видео: XviD, ~ 1600 Кбит/с, 720х400, 25 кадр/с
Аудио: Русский (AC3, 2 ch, 192 Кбит/с)
Продолжительность: 3 х ~ 01:40:00
Перевод: Не требуется
Субтитры: нет

Скриншоты

MediaInfo

General
Complete name : H:\шоу\Голос .(Season 09). HDTVRip. Files-x\01. Голос 2020. выпуск 01 от 2020.10.09.HDTVRip. Files-x.avi
Format : AVI
Format/Info : Audio Video Interleave
File size : 1.16 GiB
Duration : 1h 32mn
Overall bit rate : 1 802 Kbps
Writing application : VirtualDubMod 1.5.10.3 | www.virtualdub-fr.org || (build 2550/release)
Writing library : VirtualDubMod build 2550/release
Video
ID : 0
Format : MPEG-4 Visual
Format profile : Advanced Simple@L5
Format settings, BVOP : 2
Format settings, QPel : No
Format settings, GMC : No warppoints
Format settings, Matrix : Custom
Codec ID : XVID
Codec ID/Hint : XviD
Duration : 1h 32mn
Bit rate : 1 600 Kbps
Width : 720 pixels
Height : 400 pixels
Display aspect ratio : 16:9
Frame rate : 25.000 fps
Color space : YUV
Chroma subsampling : 4:2:0
Bit depth : 8 bits
Scan type : Progressive
Compression mode : Lossy
Bits/(Pixel*Frame) : 0.222
Stream size : 1.03 GiB (89%)
Writing library : XviD 73
Audio
ID : 1
Format : AC-3
Format/Info : Audio Coding 3
Mode extension : CM (complete main)
Codec ID : 2000
Duration : 1h 32mn
Bit rate mode : Constant
Bit rate : 192 Kbps
Channel(s) : 2 channels
Channel positions : Front: L R
Sampling rate : 48.0 KHz
Bit depth : 16 bits
Compression mode : Lossy
Stream size : 127 MiB (11%)
Alignment : Split accross interleaves
Interleave, duration : 40 ms (1.00 video frame)
Interleave, preload duration : 500 ms

Раздача ведётся путём добавления новых серий

Внимание! Раздача ведётся путём добавления новых серий; при каждом добавлении создаётся новый торрент.
Чтобы начать докачку новой серии, пользователям необходимо сделать следующее:
1. Остановить скачивание;
2. Удалить старый торрент у себя из клиента (старые серии удалять не надо);
3. Скачать новый торрент и запустить его у себя в клиенте вместо старого, при этом указать клиенту путь в старую папку куда и должно происходить скачивание новых серий. Ваш клиент при этом должен произвести хеширование (проверку) старой папки и будет докачивать только те серии, которых у вас ещё нет. Старые серии при этом не удаляются, а продолжают раздаваться! Eсли вы уже удалили старые серии, то предотвратить повторную закачку старых серий можно, отжав галочку в соответствующих местах при запуске нового торрента.
Релиз от:

Release was prepared by RG Files-x



Last edited by bond74 on 2020-10-17 15:35; edited 1 time in total
[Profile] [PM]
Display posts:    
Reply to topic

Current time is: 25-Oct 08:50

All times are UTC + 3



You cannot post new topics in this forum
You cannot reply to topics in this forum
You cannot edit your posts in this forum
You cannot delete your posts in this forum
You cannot vote in polls in this forum
You cannot attach files in this forum
You cannot download files in this forum