Фермерша [1 сезон: 1-2 серия из 2] (2019) HDTV 1080p от R.G.Generalfilm

Reply to topic
 
Author Message

White Smoke ®

Gender: Male

Longevity: 2 years 2 months

Posts: 181

Post 10-Jan-2021 19:15

[Quote]

Фермерша Год выпуска: 2019
Жанр: Мелодрама
Выпущено: Россия, Кинокомпания «Русское», НАО «Студия Лира»
Режиссер: Сергей Мезенцев
В ролях: Елена Панова, Анастасия Матвеева, Виталий Кудрявцев, Екатерина Травова, Алёна Фалалеева, Сергей Савичев, Игорь Кулачко, Милена Нестерова, Микаэлла Дель, Тимур Абитов
О фильме: Порой безграничная материнская любовь способна разрушить счастье ребенка, и тогда потребуются невероятные усилия, чтобы вернусь все на свои места… Ольга (Елена Панова), опытный фермер, всю свою жизнь посвятила семье – дочери Саше (Анастасия Матвеева) и мужу Олегу (Виталий Кудрявцев) – и любимым коровам. Саша учится в училище и собирается преподавать музыку в детском саду. Олег мечтает быстрее продать ненавистную ферму и открыть в городе ресторан, а пока погуливает на стороне. Но Ольга ничего не замечает. Она с утра до вечера работает, как вол, и одна тянет хозяйство. Все бы так и шло своим чередом, но у Саши обнаруживается уникальный голос. В училище ей прочат славу оперной дивы и сулят блестящую карьеру. Однако Ольга не привыкла верить в сказки. Она не может позволить любимой дочери гнаться за несбыточными желаниями и рушить свою настоящую судьбу. Но когда Саша вдруг теряет голос и начинает чахнуть на глазах, Ольга понимает, что обязана вернуть дочери мечту. Она продает всю свою большую ферму, на которую положила жизнь, чтобы отправиться в город к легендарному педагогу по вокалу Инессе Яковлевне Войтас (Людмила Дребнева). Железная леди выучила не одно поколение оперных певцов, но теперь отказывается брать учеников. Приведет ли подвиг матери Сашу к успеху или время безнадежно упущено и все ее жертвы окажутся напрасными?..
Качество: HDTV 1080p
Видео: MPEG-4 AVC, 1920x1080 (16:9), 7050 Кбит/с, 25 fps, 0,136 bpp
Аудио: AC3, 2 ch, 192 Кбит/с, 48 kHz
Продолжительность: ~01:30:36
Перевод : Не требуется
Cубтитры: Нет

Скриншоты

MediaInfo

General
Unique ID : 204412730748656272186568939675367380213 (0x99C875BD12C69C509B762E17E98E14F5)
Complete name : E:\Запись с тв\Fermersha 2019.HDTV 1080p.RG GeneralFilm\Fermersha.s01.e01.2019.HDTV 1080p.by.White Smoke.R.G.Generalfilm.mkv
Format : Matroska
Format version : Version 4
File size : 4.58 GiB
Duration : 1 h 30 min
Overall bit rate mode : Constant
Overall bit rate : 7 238 kb/s
Movie name : Fermersha.s01.e01.2019.HDTV 1080p.by.White Smoke.R.G.Generalfilm.mkv
Encoded date : UTC 2021-01-10 15:46:46
Writing application : mkvmerge v6.8.0 ('Theme for Great Cities') 64bit built on Mar 2 2014 21:34:26
Writing library : libebml v1.3.0 + libmatroska v1.4.1
Cover : Yes
Attachments : cover.jpg
Video
ID : 1
Format : AVC
Format/Info : Advanced Video Codec
Format profile : High@L4.1
Format settings : CABAC / 3 Ref Frames
Format settings, CABAC : Yes
Format settings, Reference : 3 frames
Format settings, GOP : M=3, N=33
Codec ID : V_MPEG4/ISO/AVC
Duration : 1 h 30 min
Bit rate mode : Constant
Bit rate : 7 051 kb/s
Width : 1 920 pixels
Height : 1 080 pixels
Display aspect ratio : 16:9
Frame rate mode : Constant
Frame rate : 25.000 FPS
Standard : PAL
Color space : YUV
Chroma subsampling : 4:2:0
Bit depth : 8 bits
Scan type : Progressive
Bits/(Pixel*Frame) : 0.136
Stream size : 4.37 GiB (95%)
Default : Yes
Forced : No
Color range : Limited
Color primaries : BT.709
Transfer characteristics : BT.709
Matrix coefficients : BT.709
Audio
ID : 2
Format : AC-3
Format/Info : Audio Coding 3
Commercial name : Dolby Digital
Codec ID : A_AC3
Duration : 1 h 30 min
Bit rate mode : Constant
Bit rate : 192 kb/s
Channel(s) : 2 channels
Channel layout : L R
Sampling rate : 48.0 kHz
Frame rate : 31.250 FPS (1536 SPF)
Compression mode : Lossy
Stream size : 124 MiB (3%)
Service kind : Complete Main
Default : Yes
Forced : No
Релиз от:
[Profile] [PM]
Display posts:    
Reply to topic

Current time is: 25-Jan 22:38

All times are UTC + 3



You cannot post new topics in this forum
You cannot reply to topics in this forum
You cannot edit your posts in this forum
You cannot delete your posts in this forum
You cannot vote in polls in this forum
You cannot attach files in this forum
You cannot download files in this forum