Пёс [6 сезон: 1-20 серии из 20] (2020) WEBRip от Generalfilm | КПК

Reply to topic
 
Author Message

mjjhec ®

Gender: Male

Longevity: 2 years 2 months

Posts: 791

Location: СССР

Post 12-Jan-2021 13:53

[Quote]

Пёс 6 Год выпуска: 2020
Жанр: Детектив
Выпущено: Украина, ООО Кинокомпания "Виктория-Универсал Продакшн"
Режиссер: Николай Каптан, Игорь Забара, Владимир Дощук
В ролях: Никита Панфилов, Андрей Саминин, Михаил Жонин, Денис Роднянский, Валерий Сковронский, Ольга Олексий, Владимир Абазопуло мл., Надежда Маринка, Анастасия Олександрук, Авигдор Фрейдлис, Альбина Гончар.
О фильме: В новом сезоне напарникам Максу Максимову и Псу в очередной раз представится возможность доказать и показать на что же способны напарники. Макс и Пес будут раскрывать самые запутанные преступления.Конечно, напарникам не обойтись без поддержки с тыла. Им всячески помогают бывшая супруга Максимова Лена и его (тоже бывший) лучший друг Леонидов, который стал новым мужем. Тут вырисовывается любовный треугольник! Лена очень трепетно относится к Максу и иногда проявляет к нему определенную заботу, а это выводит Леонидова.
Качество: WEBRip | КПК
Видео: Н.264, 640x360 (16:9), 25 fps, 400 Kbps
Аудио: AAC LC, 48 KHz, 2 ch, 128 Kbps
Продолжительность: 20 x ~00:59:00
Перевод / Озвучка: Не требуется
5-й сезон по версии канала НТВ.

Скриншоты

MediaInfo

General
Complete name : F:\Rip\Pes.S05.by.mjjhec\Pes.S05.E03.2020.WEB-DLRip.mp4
Format : MPEG-4
Format profile : Base Media
Codec ID : isom (isom/avc1/iso6)
File size : 210 MiB
Duration : 55 min 11 s
Overall bit rate mode : Variable
Overall bit rate : 531 kb/s
Encoded date : UTC 2021-01-10 14:02:48
Tagged date : UTC 2021-01-10 14:02:48
Video
ID : 1
Format : AVC
Format/Info : Advanced Video Codec
Format profile : High@L4.1
Format settings : CABAC / 10 Ref Frames
Format settings, CABAC : Yes
Format settings, Reference : 10 frames
Codec ID : avc1
Codec ID/Info : Advanced Video Coding
Duration : 55 min 11 s
Bit rate : 400 kb/s
Maximum bit rate : 1 472 kb/s
Width : 640 pixels
Height : 360 pixels
Display aspect ratio : 16:9
Frame rate mode : Constant
Frame rate : 25.000 FPS
Color space : YUV
Chroma subsampling : 4:2:0
Bit depth : 8 bits
Scan type : Progressive
Bits/(Pixel*Frame) : 0.069
Stream size : 158 MiB (75%)
Title : 264@GPAC0.5.2-DEV-rev248-g39d5978-master
Writing library : x264 core 146 r2538 121396c
Encoding settings : cabac=1 / ref=10 / deblock=1:-3:-3 / analyse=0x3:0x133 / me=umh / subme=11 / psy=1 / psy_rd=1.00:1.00 / mixed_ref=1 / me_range=48 / chroma_me=1 / trellis=2 / 8x8dct=1 / cqm=0 / deadzone=21,11 / fast_pskip=0 / chroma_qp_offset=-4 / threads=6 / lookahead_threads=1 / sliced_threads=0 / nr=0 / decimate=0 / interlaced=0 / bluray_compat=0 / constrained_intra=0 / bframes=10 / b_pyramid=2 / b_adapt=2 / b_bias=0 / direct=3 / weightb=1 / open_gop=0 / weightp=2 / keyint=240 / keyint_min=24 / scenecut=40 / intra_refresh=0 / rc_lookahead=60 / rc=2pass / mbtree=0 / bitrate=400 / ratetol=1.0 / qcomp=0.60 / qpmin=0 / qpmax=69 / qpstep=4 / cplxblur=20.0 / qblur=0.5 / vbv_maxrate=14000 / vbv_bufsize=14000 / nal_hrd=none / filler=0 / ip_ratio=1.40 / pb_ratio=1.30 / aq=1:1.00
Encoded date : UTC 2021-01-10 14:02:48
Tagged date : UTC 2021-01-10 14:02:53
Codec configuration box : avcC
Audio
ID : 2
Format : AAC LC
Format/Info : Advanced Audio Codec Low Complexity
Codec ID : mp4a-40-2
Duration : 55 min 11 s
Bit rate mode : Variable
Bit rate : 128 kb/s
Maximum bit rate : 135 kb/s
Channel(s) : 2 channels
Channel layout : L R
Sampling rate : 48.0 kHz
Frame rate : 46.875 FPS (1024 SPF)
Compression mode : Lossy
Stream size : 50.5 MiB (24%)
Encoded date : UTC 2021-01-10 12:53:41
Tagged date : UTC 2021-01-10 14:02:53
Релиз от:
[Profile] [PM]
Display posts:    
Reply to topic

Current time is: 19-Jan 11:27

All times are UTC + 3



You cannot post new topics in this forum
You cannot reply to topics in this forum
You cannot edit your posts in this forum
You cannot delete your posts in this forum
You cannot vote in polls in this forum
You cannot attach files in this forum
You cannot download files in this forum