Маска [2 сезон: 1-3 выпуски] (2021) WEBRip 720p от Files-x

Reply to topic
 
Author Message

bond74 ®

Gender: Male

Longevity: 2 years 3 months

Posts: 1102

Post 15-Feb-2021 08:56

[Quote]

Маска Год выпуска: 2021
Жанр: Ток-шоу
Выпущено: Россия, НТВ
О фильме: В самом интригующем вокальном поединке сойдутся 12 звезд шоу-бизнеса: певцы, актеры, шоумены, ведущие и спортсмены, чьи личности будут храниться в строжайшем секрете. Участники предстанут в невероятных костюмах и масках, созданных индивидуально для каждого конкурсанта. А зрителям предстоит разгадать самую охраняемую тайну российского телевидения: кто скрывается за маской?
Качество: WEBRip 720p
Видео: MPEG-4 AVC, ~ 2007 Кбит/с, 1280x720, 24 кадр/с
Аудио: AC3, 2 ch, 192 Кбит/с
Продолжительность: 3 x ~ 02:13:00
Перевод: Не требуется [Русский]
Cубтитры: нет

Скриншоты

MediaInfo

General
Unique ID : 242278959804645090047215016736274291066 (0xB6453AF8C28CB222827E13A21F00997A)
Complete name : H:\шоу\Маска .s02.2021. WEB-DL 720p. Files-x\01. Маска .s02.2021. WEB-DL 720p. Files-x.mkv
Format : Matroska
File size : 2.45 GiB
Duration : 2h 36mn
Overall bit rate : 2 244 Kbps
Encoded date : UTC 2021-02-14 21:27:50
Writing application : mkvmerge v7.8.0 ('River Man') 32bit built on Apr 3 2015 12:11:22
Writing library : libebml v1.3.1 + libmatroska v1.4.2
Video
ID : 1
Format : AVC
Format/Info : Advanced Video Codec
Format profile : High@L3.1
Format settings, CABAC : Yes
Format settings, ReFrames : 3 frames
Codec ID : V_MPEG4/ISO/AVC
Duration : 2h 36mn
Bit rate : 2 007 Kbps
Width : 1 280 pixels
Height : 720 pixels
Display aspect ratio : 16:9
Frame rate mode : Variable
Frame rate : 25.000 fps
Color space : YUV
Chroma subsampling : 4:2:0
Bit depth : 8 bits
Scan type : Progressive
Bits/(Pixel*Frame) : 0.087
Stream size : 2.19 GiB (89%)
Color primaries : BT.709-5, BT.1361, IEC 61966-2-4, SMPTE RP177
Transfer characteristics : BT.709-5, BT.1361
Matrix coefficients : BT.709-5, BT.1361, IEC 61966-2-4 709, SMPTE RP177
Audio
ID : 2
Format : AC-3
Format/Info : Audio Coding 3
Mode extension : CM (complete main)
Codec ID : A_AC3
Duration : 2h 36mn
Bit rate mode : Constant
Bit rate : 192 Kbps
Channel(s) : 2 channels
Channel positions : Front: L R
Sampling rate : 44.1 KHz
Bit depth : 16 bits
Compression mode : Lossy
Delay relative to video : 9ms
Stream size : 215 MiB (9%)

Внимание! Раздача ведётся путём добавления новых серий

Раздача ведётся путём добавления новых серий, при каждом добавлении создаётся новый торрент. Чтобы начать докачку новой серии, пользователям необходимо сделать следующее:
- Остановить скачивание.
- Удалить старый торрент у себя из клиента (старые серии удалять не надо).
- Скачать новый торрент и запустить его у себя в клиенте вместо старого, при этом указать клиенту путь в старую папку куда и должно происходить скачивание новых серий.
Ваш клиент при этом должен произвести хеширование (проверку) старой папки (если не производит сам - помогите ему сделать это), и будет докачивать только те серии которых у вас ещё нет. Старые серии при этом не удаляются, а продолжают раздаваться!
Релиз от:

Release was prepared by RG Files-x



Last edited by bond74 on 2021-03-01 17:11; edited 2 times in total
[Profile] [PM]

Post 15-Feb-2021 09:01 (after 5 minutes)

Топик был перенесен из форума Тв-шоу в форум ТВ-шоу от RG Files-x
bond74
 
Display posts:    
Reply to topic

Current time is: 08-Mar 03:11

All times are UTC + 3



You cannot post new topics in this forum
You cannot reply to topics in this forum
You cannot edit your posts in this forum
You cannot delete your posts in this forum
You cannot vote in polls in this forum
You cannot attach files in this forum
You cannot download files in this forum