Купчино [1-20 серии из 20] (2018) WEBRip 720p от GeneralFilm

Ответить на тему
 
Автор Сообщение

olegka7373 ®

Пол: Мужской

Стаж: 4 месяца 7 дней

Сообщений: 72

Откуда: Россия, Новокузнецк

Создавать темы 15-Ноя-2018 14:56

[Цитировать]

Купчино
Год выпуска: 2018
Жанр: Детектив, криминальный фильм
Выпущено: Россия, Триикс Медиа
Режиссер: Арменак Назикян, Максим Бриус, Виктор Шкуратов, Алан Дзоциев
В ролях: Григорий Некрасов, Алексей Кравченко, Денис Пьянов, Иван Решетняк, Роман Агеев, Вячеслав Аркунов, Елизавета Александрова, Алексей Одинг, Дмитрий Лебедев, Алексей Красноцветов, Егор Шмыга, Екатерина Панасюк, Пётр Харченко, Степан Пивкин, Тина Тарусина, Евгений Лямин, Мария Цветкова, Василий Башмаков, Денис Моисеев, Лора Коробских, Александр Клемантович
О фильме: 1981 год. Несостоявшегося рок-музыканта Фёдора родители перевозят из Москвы в Ленинград, где родственник устраивает его стажёром в опорный пункт милиции. Отношения между свободолюбивым юным музыкантом и его новым начальником, суровым участковым Васильичем, складываются не сразу. Васильич не воспринимает строптивого подчинённого всерьёз, поручая ему мелкие бытовые задания, а Фёдор мечтает покинуть ненавистную службу.

Качество: WEBRip (720p)
Видео: MPEG-4 AVC, ~ 3500 Кбит/с, 1280x720
Аудио: Русский (AC3, 2 ch, 192 Кбит/с)
Продолжительность: 20 x ~ 00:50:00
Перевод: Не требуется
Субтитры: нет

Скриншоты


MediaInfo

General
Unique ID : 208820699850050191820695415438167583039 (0x9D196765006473B689A4C305DAFD293F)
Complete name : D:\Kupchino.WEBRip.(720p).GeneralFilm\01.Kupchino.WEBRip.(720p).GeneralFilm.mkv
Format : Matroska
Format version : Version 2
File size : 1.32 GiB
Duration : 51 min 4 s
Overall bit rate : 3 692 kb/s
Encoded date : UTC 2018-11-13 03:17:07
Writing application : mkvmerge v7.8.0 ('River Man') 32bit built on Apr 3 2015 12:11:22
Writing library : libebml v1.3.1 + libmatroska v1.4.2
Video
ID : 1
Format : AVC
Format/Info : Advanced Video Codec
Format profile : High@L4.1
Format settings : CABAC / 9 Ref Frames
Format settings, CABAC : Yes
Format settings, ReFrames : 9 frames
Codec ID : V_MPEG4/ISO/AVC
Duration : 51 min 4 s
Bit rate : 3 500 kb/s
Width : 1 280 pixels
Height : 720 pixels
Display aspect ratio : 16:9
Frame rate mode : Constant
Frame rate : 25.000 FPS
Color space : YUV
Chroma subsampling : 4:2:0
Bit depth : 8 bits
Scan type : Progressive
Bits/(Pixel*Frame) : 0.152
Stream size : 1.22 GiB (93%)
Writing library : x264 core 146 r2538 121396c
Encoding settings : cabac=1 / ref=9 / deblock=1:-2:-1 / analyse=0x3:0x113 / me=umh / subme=9 / psy=1 / psy_rd=1.00:0.15 / mixed_ref=1 / me_range=32 / chroma_me=1 / trellis=2 / 8x8dct=1 / cqm=0 / deadzone=21,11 / fast_pskip=0 / chroma_qp_offset=-3 / threads=18 / lookahead_threads=3 / sliced_threads=0 / nr=0 / decimate=1 / interlaced=0 / bluray_compat=0 / constrained_intra=0 / bframes=9 / b_pyramid=2 / b_adapt=2 / b_bias=0 / direct=1 / weightb=1 / open_gop=0 / weightp=2 / keyint=250 / keyint_min=25 / scenecut=40 / intra_refresh=0 / rc_lookahead=40 / rc=2pass / mbtree=0 / bitrate=3500 / ratetol=1.0 / qcomp=0.60 / qpmin=0 / qpmax=69 / qpstep=4 / cplxblur=20.0 / qblur=0.5 / vbv_maxrate=14000 / vbv_bufsize=14000 / nal_hrd=none / filler=0 / ip_ratio=1.40 / pb_ratio=1.30 / aq=2:1.00
Default : Yes
Forced : No
Color range : Limited
Color primaries : BT.709
Transfer characteristics : BT.709
Matrix coefficients : BT.709
Audio
ID : 2
Format : AC-3
Format/Info : Audio Coding 3
Codec ID : A_AC3
Duration : 51 min 4 s
Bit rate mode : Constant
Bit rate : 192 kb/s
Channel(s) : 2 channels
Channel positions : Front: L R
Sampling rate : 48.0 kHz
Frame rate : 31.250 FPS (1536 SPF)
Bit depth : 16 bits
Compression mode : Lossy
Stream size : 70.1 MiB (5%)
Service kind : Complete Main
Default : Yes
Forced : No

Внимание! Раздача ведётся путём добавления новых серий

Раздача ведётся путём добавления новых серий, при каждом добавлении создаётся новый торрент. Чтобы начать докачку новой серии, пользователям необходимо сделать следующее:
- Остановить скачивание.
- Удалить старый торрент у себя из клиента (старые серии удалять не надо).
- Скачать новый торрент и запустить его у себя в клиенте вместо старого, при этом указать клиенту путь в старую папку куда и должно происходить скачивание новых серий.
Ваш клиент при этом должен произвести хеширование (проверку) старой папки (если не производит сам - помогите ему сделать это), и будет докачивать только те серии которых у вас ещё нет. Старые серии при этом не удаляются, а продолжают раздаваться!
Если вы уже удалили старые серии, то предотвратить повторную закачку старых серий можно, отжав галочку в соответствующих местах при запуске нового торрента. По возможности, желательно не удалять старые серии как можно дольше, чтобы релизер не столько продолжал раздавать старые серии, а смог сконцентрироваться на новых.
Релиз:


Последний раз редактировалось: olegka7373 (2018-11-29 11:04), всего редактировалось 1 раз
[Профиль] [ЛС]

Starik60

Пол: Мужской

Стаж: 4 месяца 8 дней

Сообщений: 119

Откуда: Москва, Россия

Создавать темы 24-Ноя-2018 13:05 (спустя 8 дней)

[Цитировать]

[Профиль] [ЛС]
Показать сообщения:    
Ответить на тему

Текущее время: 20-Мар 13:18

Часовой пояс: UTC + 3



Вы не можете начинать темы
Вы не можете отвечать на сообщения
Вы не можете редактировать свои сообщения
Вы не можете удалять свои сообщения
Вы не можете голосовать в опросах
Вы не можете прикреплять файлы к сообщениям
Вы не можете скачивать файлы