Лучше, чем люди [1-14 серии из 16] (2018) WEBRip 720p

Ответить на тему
 
Автор Сообщение

Мухич ®

Пол: Мужской

Стаж: 2 месяца 27 дней

Сообщений: 53

Создавать темы 28-Дек-2018 18:47

[Цитировать]

Лучше, чем люди
Год выпуска: 2018
Жанр: Фантастика, драма
Выпущено: Россия, Yellow, Black and White, «Спутник Восток Продакшн»
Режиссер: Андрей Джунковский
В ролях: Паулина Андреева, Александр Устюгов, Кирилл Кяро, Ольга Ломоносова, Александр Кузнецов (IX), Ирина Таранник, Виталия Корниенко, Михаил Кремер, Татьяна Ермилова, Денис Бургазлиев, Сергей Тэсслер, Виктория Корлякова, Вера Панфилова, Сергей Сосновский, Ксения Кубасова, Мария Луговая, Олег Морозов, Владимир Лукьянчиков, Алевтина Тукан, Павел Усачев, Сергей Губанов
О фильме: Действие происходит в недалеком будущем, где роботы-андроиды стали обыденным явлением и вошли во все сферы жизни людей – они помогают им воспитывать детей, работают персональными водителями и охранниками. Для большинства людей боты – просто бездушные машины для рутинной работы, но они тоже способны на эмоции. Главная героиня – супербот Ариса – пытается понять, что значит быть человеком. Как ребенок, она познаёт мир и постепенно открывает для себя такие чувства, как: забота, преданность и любовь. При этом, ее абсолютное и наивное следование по этому пути и делает ее существом лучшим, чем сами люди.

Качество: WEBRip 720p
Видео: MPEG-4 AVC, ~ 3022 Кбит/с, 1280x720, 25 кадр/с
Аудио: AC3, 2 ch, 192 Кбит/с
Продолжительность: 14 x ~ 00:52:00
Перевод: Не требуется
Cубтитры: нет

Скриншоты

MediaInfo

Общее
Уникальный идентификатор : 226284967922475275003548014970902946406 (0xAA3CE64A21B750F28978F3B48F502266)
Полное имя : C:\ULuchshe.chem.lyudi.2018.WEB-DL.(720p).Getty\Luchshe.chem.lyudi.e01.2018.WEB-DL.(720p).Getty.mkv
Формат : Matroska
Версия формата : Version 4
Размер файла : 1,14 Гбайт
Продолжительность : 49 м. 43 с.
Режим общего битрейта : Постоянный
Общий поток : 3279 Кбит/сек
Название фильма : Luchshe.chem.lyudi.e01.2018.WEB-DL.(720p).Getty
Дата кодирования : UTC 2018-11-22 22:59:49
Программа кодирования : mkvmerge v7.8.0 ('River Man') 32bit built on Mar 27 2015 16:18:02
Библиотека кодирования : libebml v1.3.1 + libmatroska v1.4.2
Видео
Идентификатор : 1
Формат : AVC
Формат/Информация : Advanced Video Codec
Профиль формата : High@L4.1
Настройки формата : CABAC / 4 Ref Frames
Параметр CABAC формата : Да
Параметр RefFrames формата : 4 кадра
Идентификатор кодека : V_MPEG4/ISO/AVC
Продолжительность : 49 м. 43 с.
Вид битрейта : Постоянный
Битрейт : 3022 Кбит/сек
Номинальный битрейт : 3200 Кбит/сек
Ширина : 1280 пикселей
Высота : 720 пикселей
Соотношение сторон : 16:9
Режим частоты кадров : Постоянный
Частота кадров : 25,000 кадров/сек
Цветовое пространство : YUV
Субдискретизация насыщенности : 4:2:0
Битовая глубина : 8 бит
Тип развёртки : Прогрессивная
Бит/(Пиксели*Кадры) : 0.131
Размер потока : 1,05 Гбайт (92%)
Default : Да
Forced : Нет
Аудио
Идентификатор : 2
Формат : AC-3
Формат/Информация : Audio Coding 3
Коммерческое название : Dolby Digital
Идентификатор кодека : A_AC3
Продолжительность : 49 м. 43 с.
Вид битрейта : Постоянный
Битрейт : 192 Кбит/сек
Каналы : 2 канала
Channel layout : L R
Частота : 48,0 КГц
Частота кадров : 31,250 кадров/сек (1536 SPF)
Битовая глубина : 16 бит
Метод сжатия : С потерями
Размер потока : 68,3 Мбайт (6%)
ServiceKind/String : Complete Main
Default : Да
Forced : Нет
Релиз от: Автор релиза: forunzak


Последний раз редактировалось: Мухич (2019-02-15 10:07), всего редактировалось 6 раз(а)
[Профиль] [ЛС]
Показать сообщения:    
Ответить на тему

Текущее время: 17-Фев 19:57

Часовой пояс: UTC + 3



Вы не можете начинать темы
Вы не можете отвечать на сообщения
Вы не можете редактировать свои сообщения
Вы не можете удалять свои сообщения
Вы не можете голосовать в опросах
Вы не можете прикреплять файлы к сообщениям
Вы не можете скачивать файлы