КВН-2018. Высшая лига. Финал [01.01] (2019) HDTVRip от GeneralFilm

Ответить на тему
 
Автор Сообщение

olegka7373 ®

Пол: Мужской

Стаж: 4 месяца 12 дней

Сообщений: 76

Откуда: Россия, Новокузнецк

Создавать темы 01-Янв-2019 19:06

[Цитировать]

КВН-2018. Высшая лига. Финал
Оригинальное название: КВН-2018. Высшая лига
Год выпуска: 2018
Жанр: Юмор
Выпущено: Россия, АМИК, Первый канал
Ведущий: Александр Масляков
О фильме: Что такое КВН - знают, без сомнения, все. В КВН играют во всем мире, это прежде всего молодежная игра. Постоянные конкурсные задания - "Визитная карточка", "Разминка", "Конкурс капитанов", "Музыкальный конкурс", "Домашнее задание". Игру команд оценивает профессиональное жюри - люди, у которых с чувством юмора все в порядке, многие из них раньше сами играли в КВН. Среди членов жюри были Константин Эрнст, Леонид Парфенов, Юлий Гусман, Леонид Ярмольник, Валдис Пельш, Сергей Шолохов, Геннадий Хазанов и другие. Кроме самих игр проводятся ежегодные встречи: фестиваль команд КВН (с 1990 г., семь раз фестиваль проходил в г.Сочи), музыкальный фестиваль КВН, летний кубок КВН, международные товарищеские игры в КВН. Сборная КВН играет со сборными других стран. Уже состоялись игры между сборной КВН и сборными Америки, Австралии, Израиля... Игра в КВН для многих становится профессией, а многие благодаря игре связывают жизнь с искусством. Из КВН "вышли": Леонид Якубович, Михаил Марфин, Татьяна Лазарева, Олег Филимонов, Юлий Гусман и многие другие.
Качество: HDTVRip
Видео: XviD, 1795 Кбит/с, 720x400
Аудио: Русский (AC3, 2 ch, 192 Кбит/с)
Продолжительность: 02:34:40

Скриншоты


MediaInfo

Общее
Полное имя : D:\KVN-2018. Vysshaja liga.Final.HDTVRip.GeneralFilm.avi
Формат : AVI
Формат/Информация : Audio Video Interleave
Размер файла : 2,16 Гбайт
Продолжительность : 2 ч. 34 м.
Общий поток : 1998 Кбит/сек
Видео
Идентификатор : 0
Формат : MPEG-4 Visual
Профиль формата : Advanced Simple@L5
Параметр BVOP формата : 1
Параметр QPel формата : Нет
Параметр GMC формата : Без точки перехода
Параметр матрицы формата : Выборочная
Идентификатор кодека : XVID
Идентификатор кодека/Подсказка : XviD
Продолжительность : 2 ч. 34 м.
Битрейт : 1795 Кбит/сек
Ширина : 720 пикселей
Высота : 400 пикселей
Соотношение сторон : 16:9
Частота кадров : 25,000 кадров/сек
Цветовое пространство : YUV
Субдискретизация насыщенности : 4:2:0
Битовая глубина : 8 бит
Тип развёртки : Прогрессивная
Метод сжатия : С потерями
Бит/(Пиксели*Кадры) : 0.249
Размер потока : 1,94 Гбайт (90%)
Библиотека кодирования : XviD 1.2.1 (UTC 2008-12-04)
Аудио
Идентификатор : 1
Формат : AC-3
Формат/Информация : Audio Coding 3
Расширение режима : CM (complete main)
Параметр Endianness формата : Big
Идентификатор кодека : 2000
Продолжительность : 2 ч. 34 м.
Вид битрейта : Постоянный
Битрейт : 192 Кбит/сек
Каналы : 2 канала
Расположение каналов : Front: L R
Частота : 48,0 КГц
Частота кадров : 31,250 кадров/сек (1536 spf)
Битовая глубина : 16 бит
Метод сжатия : С потерями
Размер потока : 212 Мбайт (10%)
Выравнивание : Соединение по промежуткам
Продолжительность промежутка : 32 мс. (0,80 видеокадр)

Команды

— «Вятка», сборная Кировской области
— «Борцы», Сургут
— «Так-то», СФУ, Красноярск
— «Раисы», Иркутск
— «Плюшки имени Ярослава Мудрого», Тверь
— «Русская дорога», АГПУ, Армавир

Жюри

Константин Эрнст, Пелагея, Татьяна Навка, Юлий Гусман, Дмитрий Нагиев, Семен Слепаков.
Релиз:
Огромная благодарность Media-Art-Club за созданный постер к раздаче
[Профиль] [ЛС]

nuz2016

Пол: Мужской

Стаж: 4 месяца 2 дня

Сообщений: 7

Создавать темы 25-Фев-2019 18:13 (спустя 1 месяц 23 дня)

[Цитировать]

А что новые игры 2019 года не выкладываются? Уже две игры было: отбор в сочи и первая 1\8. 3 марта еще одна 1\8 будет.
[Профиль] [ЛС]
Показать сообщения:    
Ответить на тему

Текущее время: 26-Мар 04:15

Часовой пояс: UTC + 3



Вы не можете начинать темы
Вы не можете отвечать на сообщения
Вы не можете редактировать свои сообщения
Вы не можете удалять свои сообщения
Вы не можете голосовать в опросах
Вы не можете прикреплять файлы к сообщениям
Вы не можете скачивать файлы