Когда Гарри встретил Седжал / Jab Harry met Sejal (2017) BDRip 1080p

Ответить на тему
 
Автор Сообщение

Monk ®

Пол: Мужской

Стаж: 4 месяца 11 дней

Сообщений: 4327

Откуда: Казань

Создавать темы 06-Янв-2019 01:51

[Цитировать]

Когда Гарри встретил Седжал / Jab Harry met Sejal Год выпуска: 2017
Жанр: Драма, мелодрама, комедия
Выпущено: Индия, Clean Slate Films, New Amsterdam Film Company
Режиссер: Имтияз Али
В ролях: Шахрукх Кхан, Анушка Шарма, Бьорн Фрайберг, Матавиоус Гейлс, Аттила Дж. Керекеш, Кристина Мерфи, Рана Ранбир, Чандан Рой Саньял
О фильме: Харриндер Сингх или просто Харри – самый заядлый бабник в Амстердаме. Он работает гидом и предпочитает жить в своё удовольствие, не обременяя себя никакими обязательствами. Но однажды, в аэропорту, к нему подходит девушка и требует помочь отыскать кольцо, которое она потеряла в Амстердаме. Именно с этого момента, для Харри начинается новая глава, которая перевернёт всю его жизнь…

Качество: BDRip 1080p
Видео: MPEG-4 AVC, 9475 Кбит/с, 1920x800
Аудио: Русский (AС3, 2 ch, 192 Кбит/с), (DTS, 6 ch, 1510 Кбит/с), хинди (AС3, 6 ch, 640 Кбит/с)
Продолжительность: 02:23:01
Перевод: Профессиональный многоголосый [Honey&Haseena], любительский многоголосый [FAN studio]
Субтитры: Английские

Скриншоты



MediaInfo

General
Unique ID : 193831584576331295591604578119660937408 (0x91D29AF44F15B65BB97C9B8CE29920C0)
Complete name : D:\Индийские фильмы\Когда Гарри встретил Седжал Jab Harry met Sejal 2017\Jab Harry Met Sejal.2017.2xRus.1080p.mkv
Format : Matroska
Format version : Version 4 / Version 2
File size : 11.8 GiB
Duration : 2 h 23 min
Overall bit rate : 11.8 Mb/s
Movie name : Jab Harry Met Sejal 2017-Hon3y
Encoded date : UTC 2018-02-24 03:40:42
Writing application : mkvmerge v9.6.0 ('Slave To Your Mind') 32bit
Writing library : libebml v1.3.4 + libmatroska v1.4.5
Video
ID : 1
Format : AVC
Format/Info : Advanced Video Codec
Format profile : High@L4.1
Format settings, CABAC : Yes
Format settings, ReFrames : 5 frames
Codec ID : V_MPEG4/ISO/AVC
Duration : 2 h 23 min
Bit rate : 9 475 kb/s
Width : 1 920 pixels
Height : 800 pixels
Display aspect ratio : 2.40:1
Frame rate mode : Constant
Frame rate : 24.000 FPS
Color space : YUV
Chroma subsampling : 4:2:0
Bit depth : 8 bits
Scan type : Progressive
Bits/(Pixel*Frame) : 0.257
Stream size : 9.46 GiB (80%)
Title : ~ jasinpapa ~
Writing library : x264 core 152 r2851 ba24899
Encoding settings : cabac=1 / ref=5 / deblock=1:-1:-1 / analyse=0x3:0x133 / me=umh / subme=9 / psy=1 / psy_rd=1.00:0.15 / mixed_ref=1 / me_range=16 / chroma_me=1 / trellis=2 / 8x8dct=1 / cqm=0 / deadzone=21,11 / fast_pskip=0 / chroma_qp_offset=-3 / threads=12 / lookahead_threads=1 / sliced_threads=0 / nr=0 / decimate=1 / interlaced=0 / bluray_compat=0 / constrained_intra=0 / bframes=3 / b_pyramid=2 / b_adapt=2 / b_bias=0 / direct=3 / weightb=1 / open_gop=0 / weightp=2 / keyint=250 / keyint_min=24 / scenecut=40 / intra_refresh=0 / rc_lookahead=60 / rc=2pass / mbtree=1 / bitrate=9475 / ratetol=1.0 / qcomp=0.60 / qpmin=0 / qpmax=69 / qpstep=4 / cplxblur=20.0 / qblur=0.5 / ip_ratio=1.40 / aq=1:1.00
Language : English
Default : Yes
Forced : No
Audio #1
ID : 2
Format : AC-3
Format/Info : Audio Coding 3
Format settings, Endianness : Big
Codec ID : A_AC3
Duration : 2 h 23 min
Bit rate mode : Constant
Bit rate : 640 kb/s
Channel(s) : 6 channels
Channel positions : Front: L C R, Side: L R, LFE
Sampling rate : 48.0 kHz
Frame rate : 31.250 FPS (1536 spf)
Bit depth : 16 bits
Compression mode : Lossy
Stream size : 655 MiB (5%)
Title : Hindi
Language : Hindi
Service kind : Complete Main
Default : No
Forced : No
Audio #2
ID : 4
Format : AC-3
Format/Info : Audio Coding 3
Format settings, Endianness : Big
Codec ID : A_AC3
Duration : 2 h 23 min
Bit rate mode : Constant
Bit rate : 192 kb/s
Channel(s) : 2 channels
Channel positions : Front: L R
Sampling rate : 48.0 kHz
Frame rate : 31.250 FPS (1536 spf)
Bit depth : 16 bits
Compression mode : Lossy
Stream size : 196 MiB (2%)
Title : Russian
Language : Russian
Service kind : Complete Main
Default : Yes
Forced : No
Audio #3
ID : 5
Format : DTS
Format/Info : Digital Theater Systems
Mode : 16
Format settings, Endianness : Big
Codec ID : A_DTS
Duration : 2 h 23 min
Bit rate mode : Constant
Bit rate : 1 510 kb/s
Channel(s) : 6 channels
Channel positions : Front: L C R, Side: L R, LFE
Sampling rate : 48.0 kHz
Frame rate : 93.750 FPS (512 spf)
Bit depth : 24 bits
Compression mode : Lossy
Stream size : 1.50 GiB (13%)
Title : RUS [Deni347]
Language : Russian
Default : No
Forced : No
Text
ID : 3
Format : UTF-8
Codec ID : S_TEXT/UTF8
Codec ID/Info : UTF-8 Plain Text
Duration : 2 h 18 min
Bit rate : 43 b/s
Count of elements : 1459
Stream size : 44.6 KiB (0%)
Language : English
Default : No
Forced : No
Menu
00:00:00.000 : en:Chapter 01
00:01:56.833 : en:Chapter 02
00:05:49.458 : en:Chapter 03
00:17:26.458 : en:Chapter 04
00:26:01.416 : en:Chapter 05
00:29:59.375 : en:Chapter 06
00:37:54.875 : en:Chapter 07
00:52:05.625 : en:Chapter 08
00:55:45.000 : en:Chapter 09
00:59:24.750 : en:Chapter 10
01:03:54.541 : en:Chapter 11
01:07:33.125 : en:Chapter 12
01:10:09.333 : en:Chapter 13
01:23:53.000 : en:Chapter 14
01:26:44.416 : en:Chapter 15
01:39:19.541 : en:Chapter 16
01:45:39.458 : en:Chapter 17
01:47:24.208 : en:Chapter 18
01:50:51.625 : en:Chapter 19
02:00:36.083 : en:Chapter 20
02:06:02.458 : en:Chapter 21
02:14:49.000 : en:Chapter 22
02:15:49.750 : en:Chapter 23
02:20:02.416 : en:Chapter 24
[Профиль] [ЛС]
Показать сообщения:    
Ответить на тему

Текущее время: 26-Мар 04:17

Часовой пояс: UTC + 3



Вы не можете начинать темы
Вы не можете отвечать на сообщения
Вы не можете редактировать свои сообщения
Вы не можете удалять свои сообщения
Вы не можете голосовать в опросах
Вы не можете прикреплять файлы к сообщениям
Вы не можете скачивать файлы