Одиночка [1-16 серии из 16] (2016) WEB-DL 1080p от ExKinoRay

Reply to topic
 
Author Message

Nicodem ®

Gender: Male

Longevity: 7 months 29 days

Posts: 178

Post 11-Jan-2019 00:10

[Quote]

Одиночка
Год выпуска: 2016
Жанр: Детектив
Выпущено: Россия, Украина, «Киевтелефильм»
Режиссер: Виктор Конисевич
В ролях: Алексей Горбунов, Ванда Конисевич, Ирина Ефремова (II), Андрей Стоянов, Алиса Тункевич, Николай Боклан, Мария Климова, Андрей Исаенко, Сергей Кучера, Станислав Щёкин, Олег Школьник, Владимир Левицкий, Павел Шмарёв, Михаил Шамигулов, Борис Абрамов, Алексей Агопьян, Михаил Аугуст, Иванна Бжезинская, Александр Бондарь, Вячеслав Василюк, Алексей Власенко, Даниил Вулицкий, Владислава Гаврилюк, Борис Георгиевский, Владимир Гладкий, Юрий Гребельник, Юлия Григорьева (III), Иван Губанов, Сергей Деньга, Олег Коркушко, Дерик Дитади, Олег Драч, Елена Дудич, Александр Жуковин, Алексей Зорин, Игорь Зоров, Ярослав Игнатенко, Валентин Кисельков, Филипп Козлов, Станислав Колокольников, Виктор Конисевич, Анастасия Конисевич, Андрей Корженевский, Галина Корнеева, Тимофей Криницкий, Михаил Круль, Александр Крыжановский, Андрей Лелюх, Алиса Дебабова-Лукшина, Рустам Мазничка, Олег Москаленко, Максим Никитин, Юрий Одинокий, Александр Онищенко, Александр Онуфриев, Евгений Пашин, Владимир Пилипенко, Юрий Понзель, Геннадий Попенко, Олег Примогенов, Маргарита Савкун, Анна Сагайдачная, Сергей Солопай, Елена Скрипка, Виктор Степаненко (III), Виктор Стороженко (III), Ольга Сумская, Лариса Уманцева, Виктор Шестаков, Владимир Ямненко
О фильме: Глеб с первого взгляда кажется жестким и принципиальным, его характер сложный и не снисходителен. Он привык все проблемы решать самостоятельно, держать свое слово и быть уважаемым среди знакомых и коллег. Единственное утешение и луч света в жизни Глеба Мечникова - это его дочь Кристина. Мужчина вырастил ее сам, без жены и какой-либо поддержки со стороны родных. Девочке 16 лет, ее отношения с отцом не назовешь простыми, однако любовь, которая есть между ними, невозможно уничтожить. Кристина еще подросток и многого не понимает. Ее стремительность, постоянные обиды и нетерпимость породят немало проблем, которые изменят судьбы отца и дочери навсегда. Несмотря на амбициозность и принципиальность Мечникова, женщины не лишают его внимания. Сильные и независимые красавицы Оксана Волощук и Злата тайком влюбленные в него.

Качество: WEB-DL 1080p
Видео: MPEG-4 AVC, ~ 5009 Кбит/с, 1920x1080, 25 кадр/с
Аудио: AC3, 2 ch, 192 Кбит/с
Продолжительность: 16 x ~ 00:45:00
Перевод: Не требуется
Cубтитры: нет
Сэмпл

Скриншоты



MediaInfo

General
Unique ID : 229113440547134521492708602542331306581 (0xAC5DA4C1BBA66BF0BEDFE917CC68A255)
Complete name : C:\Users\DOM\Downloads\Odinochka.2016.WEB-DL.(1080p).Nikolspup\Odinochka.(01.seriya.iz.16).2016.WEB-DL.(1080p).Nikolspup.mkv
Format : Matroska
File size : 1.70 GiB
Duration : 45mn 47s
Overall bit rate : 5 306 Kbps
Encoded date : UTC 2019-01-08 15:15:31
Writing application : mkvmerge v7.8.0 ('River Man') 32bit built on Mar 27 2015 16:18:02
Writing library : libebml v1.3.1 + libmatroska v1.4.2
Video
ID : 1
Format : AVC
Format/Info : Advanced Video Codec
Format profile : High@L4.0
Format settings, CABAC : Yes
Format settings, ReFrames : 4 frames
Codec ID : V_MPEG4/ISO/AVC
Duration : 45mn 47s
Bit rate : 5 009 Kbps
Width : 1 920 pixels
Height : 1 080 pixels
Display aspect ratio : 16:9
Frame rate mode : Variable
Frame rate : 25.000 fps
Color space : YUV
Chroma subsampling : 4:2:0
Bit depth : 8 bits
Scan type : Progressive
Bits/(Pixel*Frame) : 0.097
Stream size : 1.60 GiB (94%)
Audio
ID : 2
Format : AC-3
Format/Info : Audio Coding 3
Mode extension : CM (complete main)
Codec ID : A_AC3
Duration : 45mn 47s
Bit rate mode : Constant
Bit rate : 192 Kbps
Channel(s) : 2 channels
Channel positions : Front: L R
Sampling rate : 48.0 KHz
Bit depth : 16 bits
Compression mode : Lossy
Stream size : 62.9 MiB (4%)
Language : Russian

Раздача ведётся путём добавления новых серий

Внимание! Раздача ведётся путём добавления новых серий; при каждом добавлении создаётся новый торрент.
Чтобы начать докачку новой серии, пользователям необходимо сделать следующее:
1. Остановить скачивание;
2. Удалить старый торрент у себя из клиента (старые серии удалять не надо);
3. Скачать новый торрент и запустить его у себя в клиенте вместо старого, при этом указать клиенту путь в старую папку куда и должно происходить скачивание новых серий. Ваш клиент при этом должен произвести хеширование (проверку) старой папки и будет докачивать только те серии, которых у вас ещё нет. Старые серии при этом не удаляются, а продолжают раздаваться! Eсли вы уже удалили старые серии, то предотвратить повторную закачку старых серий можно, отжав галочку в соответствующих местах при запуске нового торрента.
[Profile] [PM]
Display posts:    
Reply to topic

Current time is: 17-Jul 10:36

All times are UTC + 3



You cannot post new topics in this forum
You cannot reply to topics in this forum
You cannot edit your posts in this forum
You cannot delete your posts in this forum
You cannot vote in polls in this forum
You cannot attach files in this forum
You cannot download files in this forum