Аншлаг. Старый Новый год (2019) HDTVRip от Files-x

Reply to topic
 
Author Message

bond74 ®

Gender: Male

Longevity: 8 months 2 days

Posts: 550

Post 13-Jan-2019 03:35

[Quote]

Аншлаг. Старый Новый год Год выпуска: 2019
Жанр: Юмор, ТВ-шоу
Выпущено: Россия, ВГТРК
Ведущий: Юрий Кондратюк
В роля: Регина Дубовицкая
О фильме: "Аншлаговцы" уже много лет – привычная компания для телезрителей в Старый Новый год. Сегодня с лучшими номерами выступят постоянные участники и гости "Аншлага". Собравшись 13 января в своем клубе, чтобы встретить Старый Новый год вместе с любимыми зрителями, все артисты по традиции подготовили новые праздничные номера. В программу также вошли уникальные видеоматериалы из архива "Аншлага" разных лет.
Качество: HDTVRip
Видео: XviD, ~ 2000 Кбит/с, 720х400, 25 кадр/с
Аудио: AC3, 2 ch, 192 Кбит/с
Продолжительность: 2:45:21
Перевод: Не требуется
Субтитры: нет

Скриншоты

MediaInfo

General
Complete name : C:\Users\user\Downloads\Video\Аншлаг. Старый Новый год. 2019.01.12. HDTVRip-files-x.avi
Format : AVI
Format/Info : Audio Video Interleave
Format profile : OpenDML
File size : 2.55 GiB
Duration : 2h 45mn
Overall bit rate : 2 204 Kbps
Writing application : VirtualDubMod 1.5.10.3 | www.virtualdub-fr.org || (build 2550/release)
Writing library : VirtualDubMod build 2550/release
Video
ID : 0
Format : MPEG-4 Visual
Format profile : Advanced Simple@L5
Format settings, BVOP : 1
Format settings, QPel : No
Format settings, GMC : No warppoints
Format settings, Matrix : Custom
Codec ID : XVID
Codec ID/Hint : XviD
Duration : 2h 45mn
Bit rate : 2 000 Kbps
Width : 720 pixels
Height : 400 pixels
Display aspect ratio : 16:9
Frame rate : 25.000 fps
Color space : YUV
Chroma subsampling : 4:2:0
Bit depth : 8 bits
Scan type : Progressive
Compression mode : Lossy
Bits/(Pixel*Frame) : 0.278
Stream size : 2.31 GiB (91%)
Writing library : XviD 1.2.1 (UTC 2008-12-04)
Audio
ID : 1
Format : AC-3
Format/Info : Audio Coding 3
Mode extension : CM (complete main)
Codec ID : 2000
Duration : 2h 45mn
Bit rate mode : Constant
Bit rate : 192 Kbps
Channel(s) : 2 channels
Channel positions : Front: L R
Sampling rate : 48.0 KHz
Bit depth : 16 bits
Compression mode : Lossy
Stream size : 227 MiB (9%)
Alignment : Split accross interleaves
Interleave, duration : 40 ms (1.00 video frame)
Interleave, preload duration : 500 ms
Релиз от:[url=http://generalfilm.website/]
[Profile] [PM]
Display posts:    
Reply to topic

Current time is: 17-Jul 10:38

All times are UTC + 3



You cannot post new topics in this forum
You cannot reply to topics in this forum
You cannot edit your posts in this forum
You cannot delete your posts in this forum
You cannot vote in polls in this forum
You cannot attach files in this forum
You cannot download files in this forum