Смолфут / Smallfoot (2018) Blu-Ray Remux 1080p | Лицензия

Reply to topic
 
Author Message

runetzone ®

Gender: Male

Longevity: 3 months 11 days

Posts: 63

Location: Санкт-Петербург

Post 14-Jan-2019 15:24

[Quote]

Смолфут / Smallfoot Год выпуска: 2018
Жанр: Мультфильм, мюзикл, фэнтези, комедия, приключения, семейный, полнометражный
Выпущено: США, Warner Animation Group, Warner Bros., Zaftig Films
Режиссер: Кэри Киркпатрик, Джейсон Рейсиг
В ролях: Ченнинг Татум, Джеймс Корден, Зендая Колеман, Коммон, Леброн Джеймс, Дэнни ДеВито, Джина Родригез, Яра Шахиди, Эли Генри, Джимми Татро
О фильме: «Смолфут» переворачивает миф о бигфутах с ног на голову. В нем молодой находчивый йети сталкивается с тем, что по его глубокому убеждению, не существует — человека. Новости о «смолфуте» приносят ему славу и шанс завоевать девушку его мечты. А еще — вызывают переполох среди простых йети, которые теперь гадают, что же еще обитает в большом мире за пределами их маленькой заснеженной деревушки.

Качество: Blu-Ray Remux 1080p
Видео: MPEG-4 AVC, 22.3 Mбит/с, 1920x1080, 23.976 fps
Аудио: Русский (AC3, 6 ch, 640 Кбит/с), украинский (AC3, 2 ch, 160 Кбит/с), английский (DTS-HD MA, 6 ch, 4179 Кбит/с)
Продолжительность: 01:36:17
Перевод: Дублированный | Лицензия
Cубтитры: Русские, английские

Скриншоты

MediaInfo

General
Unique ID : 181516639832444968966727055162911534721 (0x888ED54CF97121D572FE872FF9CCAE81)
Complete name : D:\Video111\Smallfoot.2018.Lic.BDREMUX.1080p.seleZen.mkv
Format : Matroska
Format version : Version 4
File size : 18.4 GiB
Duration : 1 h 36 min
Overall bit rate mode : Variable
Overall bit rate : 27.3 Mb/s
Movie name : Smallfoot 2018 from селезень
Encoded date : UTC 2019-01-10 20:22:08
Writing application : mkvmerge v29.0.0 ('Like It Or Not') 64-bit
Writing library : libebml v1.3.6 + libmatroska v1.4.9
Video
ID : 1
Format : AVC
Format/Info : Advanced Video Codec
Format profile : High@L4.1
Format settings : CABAC / 2 Ref Frames
Format settings, CABAC : Yes
Format settings, ReFrames : 2 frames
Codec ID : V_MPEG4/ISO/AVC
Duration : 1 h 36 min
Bit rate mode : Variable
Bit rate : 22.3 Mb/s
Width : 1 920 pixels
Height : 1 080 pixels
Display aspect ratio : 16:9
Frame rate mode : Constant
Frame rate : 23.976 (24000/1001) FPS
Color space : YUV
Chroma subsampling : 4:2:0
Bit depth : 8 bits
Scan type : Progressive
Bits/(Pixel*Frame) : 0.449
Stream size : 15.0 GiB (82%)
Language : English
Default : Yes
Forced : No
Audio #1
ID : 2
Format : AC-3
Format/Info : Audio Coding 3
Commercial name : Dolby Digital
Codec ID : A_AC3
Duration : 1 h 36 min
Bit rate mode : Constant
Bit rate : 640 kb/s
Channel(s) : 6 channels
Channel layout : L R C LFE Ls Rs
Sampling rate : 48.0 kHz
Frame rate : 31.250 FPS (1536 SPF)
Bit depth : 16 bits
Compression mode : Lossy
Stream size : 441 MiB (2%)
Title : Dub [License]
Language : Russian
Service kind : Complete Main
Default : Yes
Forced : Yes
Audio #2
ID : 3
Format : AC-3
Format/Info : Audio Coding 3
Commercial name : Dolby Digital
Codec ID : A_AC3
Duration : 1 h 36 min
Bit rate mode : Constant
Bit rate : 160 kb/s
Channel(s) : 2 channels
Channel layout : L R
Sampling rate : 48.0 kHz
Frame rate : 31.250 FPS (1536 SPF)
Bit depth : 16 bits
Compression mode : Lossy
Stream size : 110 MiB (1%)
Title : Dub
Language : Ukrainian
Service kind : Complete Main
Default : No
Forced : No
Audio #3
ID : 4
Format : DTS XLL
Format/Info : Digital Theater Systems
Commercial name : DTS-HD Master Audio
Codec ID : A_DTS
Duration : 1 h 36 min
Bit rate mode : Variable
Bit rate : 4 179 kb/s
Channel(s) : 6 channels
Channel layout : C L R Ls Rs LFE
Sampling rate : 48.0 kHz
Frame rate : 93.750 FPS (512 SPF)
Bit depth : 24 bits
Compression mode : Lossless
Stream size : 2.81 GiB (15%)
Title : Original
Language : English
Default : No
Forced : No
Text #1
ID : 5
Format : UTF-8
Codec ID : S_TEXT/UTF8
Codec ID/Info : UTF-8 Plain Text
Duration : 55 min 58 s
Bit rate : 1 b/s
Count of elements : 19
Stream size : 729 Bytes (0%)
Title : Forced
Language : Russian
Default : Yes
Forced : Yes
Text #2
ID : 6
Format : UTF-8
Codec ID : S_TEXT/UTF8
Codec ID/Info : UTF-8 Plain Text
Duration : 1 h 35 min
Bit rate : 108 b/s
Count of elements : 1500
Stream size : 76.0 KiB (0%)
Title : Full
Language : Russian
Default : No
Forced : No
Text #3
ID : 7
Format : UTF-8
Codec ID : S_TEXT/UTF8
Codec ID/Info : UTF-8 Plain Text
Duration : 55 min 59 s
Bit rate : 1 b/s
Count of elements : 19
Stream size : 750 Bytes (0%)
Title : Forced
Language : Ukrainian
Default : No
Forced : No
Text #4
ID : 8
Format : UTF-8
Codec ID : S_TEXT/UTF8
Codec ID/Info : UTF-8 Plain Text
Duration : 1 h 30 min
Bit rate : 75 b/s
Count of elements : 1774
Stream size : 50.2 KiB (0%)
Title : Full
Language : English
Default : No
Forced : No
Text #5
ID : 9
Format : UTF-8
Codec ID : S_TEXT/UTF8
Codec ID/Info : UTF-8 Plain Text
Duration : 1 h 30 min
Bit rate : 88 b/s
Count of elements : 2098
Stream size : 58.6 KiB (0%)
Title : SDH
Language : English
Default : No
Forced : No
Menu
00:00:00.000 : :Chapter 01
00:09:56.262 : :Chapter 02
00:21:36.295 : :Chapter 03
00:32:10.637 : :Chapter 04
00:38:33.602 : :Chapter 05
00:49:59.705 : :Chapter 06
00:55:37.167 : :Chapter 07
01:01:53.209 : :Chapter 08
01:12:04.278 : :Chapter 09
01:18:26.076 : :Chapter 10
01:26:16.796 : :Chapter 11
01:31:12.300 : :Chapter 12
Релиз от:
[Profile] [PM]
Display posts:    
Reply to topic

Current time is: 18-Apr 16:25

All times are UTC + 3



You cannot post new topics in this forum
You cannot reply to topics in this forum
You cannot edit your posts in this forum
You cannot delete your posts in this forum
You cannot vote in polls in this forum
You cannot attach files in this forum
You cannot download files in this forum