Тайна дома с часами / The House with a Clock in Its Walls (2018) BDRip 1080p От R.G.Generalfilm DUB [Лицензия]

Ответить на тему
 
Автор Сообщение

White Smoke ®

Пол: Мужской

Стаж: 3 месяца 4 дня

Сообщений: 30

Создавать темы 18-Янв-2019 18:48

[Цитировать]

Тайна дома с часами / The House with a Clock in Its Walls Год выпуска: 2018
Жанр: Ужасы, фантастика, фэнтези, триллер, комедия, детектив, семейный
Выпущено: США, Индия, Канада
Режиссер: Элай Рот
В ролях: Джек Блэк, Кейт Бланшетт, Оуэн Ваккаро, Кайл МакЛахлан, Рене Голдсберри, Коллин Кэмп, Санни Сулджик, Лоренца Иззо, Брэкстон Бьеркен, Ванесса Энн Уильямс
О фильме: Первое, что услышал Льюис, ступив на порог загадочного особняка своего дяди, — это тиканье часов, раздававшееся из древних стен. Он окунается в мир магии и колдовства, о существовании которого даже не подозревал. Здесь оживают картины, обитают невероятные создания, а сердце дома хранит тайну времени.
Качество: BDRip 1080p
Видео: AVC, 1920x800 (2.40:1), 23.976 fps, 6 600 Kbps (0.179 bit/pixel)
Аудио: AC3, 48.0 KHz, 6 ch, 448 Kbps
Продолжительность: 01:45:03
Перевод: Дублированный [Лицензия]
Cубтитры: русские (Forced) (Full)

Скриншоты





MediaInfo

General
Unique ID : 197048410196864534181228643928099384688 (0x943E24B3D81AAB84B00B49302DDDED70)
Complete name : E:\Запись с тв\The.House.with.a.Clock.in.Its.Walls.2018.BDRip-1080p.Rip.by.White Smoke.R.G.Generalfilm.mkv
Format : Matroska
Format version : Version 4 / Version 2
File size : 5.18 GiB
Duration : 1 h 45 min
Overall bit rate : 7 052 kb/s
Movie name : The.House.with.a.Clock.in.Its.Walls.2018.BDRip-1080p.Rip.by.White Smoke.R.G.Generalfilm.mkv
Encoded date : UTC 2019-01-18 13:54:41
Writing application : mkvmerge v6.8.0 ('Theme for Great Cities') 64bit built on Mar 2 2014 21:34:26
Writing library : libebml v1.3.0 + libmatroska v1.4.1
Cover : Yes
Attachments : cover.jpg
Video
ID : 1
Format : AVC
Format/Info : Advanced Video Codec
Format profile : High@L4.1
Format settings : CABAC / 5 Ref Frames
Format settings, CABAC : Yes
Format settings, ReFrames : 5 frames
Codec ID : V_MPEG4/ISO/AVC
Duration : 1 h 45 min
Bit rate : 6 600 kb/s
Width : 1 920 pixels
Height : 800 pixels
Display aspect ratio : 2.40:1
Frame rate mode : Constant
Frame rate : 23.976 (24000/1001) FPS
Color space : YUV
Chroma subsampling : 4:2:0
Bit depth : 8 bits
Scan type : Progressive
Bits/(Pixel*Frame) : 0.179
Stream size : 4.74 GiB (92%)
Writing library : x264 core 148 r2638 7599210
Encoding settings : cabac=1 / ref=5 / deblock=1:-2:-1 / analyse=0x3:0x113 / me=umh / subme=11 / psy=1 / psy_rd=0.00:0.15 / mixed_ref=1 / me_range=32 / chroma_me=1 / trellis=2 / 8x8dct=1 / cqm=0 / deadzone=21,11 / fast_pskip=0 / chroma_qp_offset=-3 / threads=6 / lookahead_threads=1 / sliced_threads=0 / nr=0 / decimate=0 / interlaced=0 / bluray_compat=0 / constrained_intra=0 / bframes=10 / b_pyramid=2 / b_adapt=2 / b_bias=0 / direct=1 / weightb=1 / open_gop=0 / weightp=2 / keyint=240 / keyint_min=25 / scenecut=40 / intra_refresh=0 / rc=2pass / mbtree=0 / bitrate=6600 / ratetol=1.0 / qcomp=0.65 / qpmin=0 / qpmax=69 / qpstep=4 / cplxblur=20.0 / qblur=0.5 / ip_ratio=1.40 / pb_ratio=1.30 / aq=1:1.00
Language : English
Default : Yes
Forced : No
Color range : Limited
Color primaries : BT.709
Transfer characteristics : BT.709
Matrix coefficients : BT.709
Audio
ID : 2
Format : AC-3
Format/Info : Audio Coding 3
Commercial name : Dolby Digital
Codec ID : A_AC3
Duration : 1 h 45 min
Bit rate mode : Constant
Bit rate : 448 kb/s
Channel(s) : 6 channels
Channel layout : L R C LFE Ls Rs
Sampling rate : 48.0 kHz
Frame rate : 31.250 FPS (1536 SPF)
Bit depth : 16 bits
Compression mode : Lossy
Stream size : 337 MiB (6%)
Title : Dub [License]
Language : Russian
Service kind : Complete Main
Default : No
Forced : No
Text #1
ID : 3
Format : UTF-8
Codec ID : S_TEXT/UTF8
Codec ID/Info : UTF-8 Plain Text
Title : Forced [License]
Language : Russian
Default : Yes
Forced : Yes
Text #2
ID : 4
Format : UTF-8
Codec ID : S_TEXT/UTF8
Codec ID/Info : UTF-8 Plain Text
Title : Full [License]
Language : Russian
Default : No
Forced : No
Text #3
ID : 5
Format : UTF-8
Codec ID : S_TEXT/UTF8
Codec ID/Info : UTF-8 Plain Text
Title : Full v.2
Language : Russian
Default : No
Forced : No
Menu
00:00:00.000 : en:Chapter 01
00:05:32.707 : en:Chapter 02
00:11:59.635 : en:Chapter 03
00:16:41.792 : en:Chapter 04
00:22:41.985 : en:Chapter 05
00:27:43.536 : en:Chapter 06
00:31:11.494 : en:Chapter 07
00:34:58.346 : en:Chapter 08
00:39:05.843 : en:Chapter 09
00:44:35.422 : en:Chapter 10
00:49:56.034 : en:Chapter 11
00:53:44.221 : en:Chapter 12
00:58:07.734 : en:Chapter 13
01:05:02.064 : en:Chapter 14
01:11:44.842 : en:Chapter 15
01:15:59.638 : en:Chapter 16
01:21:33.805 : en:Chapter 17
01:26:39.986 : en:Chapter 18
01:33:34.650 : en:Chapter 19
01:39:04.313 : en:Chapter 20
01:44:58.333 : en:Chapter 21
Релиз от: -
[Профиль] [ЛС]
Показать сообщения:    
Ответить на тему

Текущее время: 17-Фев 19:59

Часовой пояс: UTC + 3



Вы не можете начинать темы
Вы не можете отвечать на сообщения
Вы не можете редактировать свои сообщения
Вы не можете удалять свои сообщения
Вы не можете голосовать в опросах
Вы не можете прикреплять файлы к сообщениям
Вы не можете скачивать файлы