Стрела / Arrow [7 сезон: 1-13 серии из 23] (2018) WEB-DLRip LostFilm

Ответить на тему
 
Автор Сообщение

Mercury ®

Пол: Мужской

Стаж: 25 дней

Сообщений: 7

Создавать темы 24-Янв-2019 13:29

[Цитировать]

Стрела / Arrow
Год выпуска: 2018
Жанр: фантастика, боевик, драма, криминал, детектив, приключения
Выпущено: США, The CW
Режиссер: Джон Беринг, Майкл Шульц, Глен Винтер
В ролях: Джон Беринг, Майкл Шульц, Глен Винтер
В главных ролях: Стивен Амелл, Кэти Кэссиди, Колин Доннелл, Дэвид Рэмси, Уилла Холлэнд, Сюзанна Томпсон, Пол Блекторн, Колин Сэлмон, Эмили Бетт Рикардс, Энни Айлонзех, Себастьян Данн, Байрон Манн, Роджер Р. Кросс, Мэррет Грин, Ли Винсент, Джон Барроумен, Лесли Ивен
О фильме: Оливер Куин отбывает срок в тюрьме. Но это не мешает появляться на улицах Зелёной Стреле. Как раз тогда, когда банды почувствовали полную безнаказанность. Лорел и Дина вместо сотрудничества с мстителем выбирают путь его преследования именем закона.
Качество: WEB-DLRip
Видео: Xvid 720x400 23.976fps 1746kbps
Аудио: MP3 48000Hz stereo 187kbps 2ch
Продолжительность: 10x ~ 00:45:00
Перевод: Профессиональный (многоголосый закадровый) (LostFilm)
Cубтитры: нет
Релиз без рекламы

Скриншоты

MediaInfo

General
Complete name : D:\Сериалы\Arrow.S07.rus.LostFilm.TV\Arrow.S07E01.rus.LostFilm.TV.avi
Format : AVI
Format/Info : Audio Video Interleave
File size : 591 MiB
Duration : 42mn 26s
Overall bit rate mode : Variable
Overall bit rate : 1 947 Kbps
Writing application : Nandub v1.0rc2
Writing library : Nandub build 1853/release
Video
ID : 0
Format : MPEG-4 Visual
Format profile : Advanced Simple@L5
Format settings, BVOP : No
Format settings, QPel : No
Format settings, GMC : No warppoints
Format settings, Matrix : Default (MPEG)
Codec ID : XVID
Codec ID/Hint : XviD
Duration : 42mn 26s
Bit rate : 1 747 Kbps
Width : 720 pixels
Height : 400 pixels
Display aspect ratio : 16:9
Frame rate : 23.976 fps
Color space : YUV
Chroma subsampling : 4:2:0
Bit depth : 8 bits
Scan type : Progressive
Compression mode : Lossy
Bits/(Pixel*Frame) : 0.253
Stream size : 530 MiB (90%)
Writing library : XviD 1.2.1 (UTC 2008-12-04)
Audio
ID : 1
Format : MPEG Audio
Format version : Version 1
Format profile : Layer 3
Mode : Joint stereo
Mode extension : MS Stereo
Codec ID : 55
Codec ID/Hint : MP3
Duration : 42mn 26s
Bit rate mode : Variable
Bit rate : 192 Kbps
Channel(s) : 2 channels
Sampling rate : 48.0 KHz
Compression mode : Lossy
Stream size : 56.9 MiB (10%)
Alignment : Aligned on interleaves
Interleave, duration : 24 ms (0.58 video frame)
Interleave, preload duration : 469 ms
Writing library : LAME3.97b
Encoding settings : -m j -V 4 -q 3 -lowpass 18.6 --abr 192


Последний раз редактировалось: Mercury (2019-02-14 07:08), всего редактировалось 1 раз
[Профиль] [ЛС]

Mercury ®

Пол: Мужской

Стаж: 25 дней

Сообщений: 7

Создавать темы 14-Фев-2019 07:09 (спустя 20 дней)

[Цитировать]

+13-я серия
[Профиль] [ЛС]
Показать сообщения:    
Ответить на тему

Текущее время: 17-Фев 19:57

Часовой пояс: UTC + 3



Вы не можете начинать темы
Вы не можете отвечать на сообщения
Вы не можете редактировать свои сообщения
Вы не можете удалять свои сообщения
Вы не можете голосовать в опросах
Вы не можете прикреплять файлы к сообщениям
Вы не можете скачивать файлы