Три богатыря и Наследница престола (2018) WEB-DL 1080p | iTunes

Reply to topic
 
Author Message

Мухич ®

Gender: Male

Longevity: 7 months 26 days

Posts: 53

Post 06-Feb-2019 09:45

[Quote]

Три богатыря и Наследница престола
Год выпуска: 2018
Жанр: Мультфильм, приключения, семейный, детский, полнометражный
Выпущено: Россия, Мельница
Режиссер: Константин Бронзит
В ролях: Михаил Черняк, Сергей Маковецкий, Дмитрий Быковский-Ромашов, Валерий Соловьёв, Олег Куликович, Дмитрий Высоцкий, Александр Боярский, Екатерина Гороховская, Юрий Тарасов, Юрий Кузнецов
О фильме: Князь Киевский решил назначить наследника престола, только вот незадача - кто это может быть? Родственник, друг семьи или может быть, заморская принцесса? Недолго думая, Князь-батюшка выбирает почти принцессу, а главное родственницу - племянницу Забаву. Нынче она вместе со своим мужем Елисеем (помните верного ученика Добрыни Никитича?) получает образование в далеком Царьграде, где правит коварный Василевс. Чтобы вернуть наследницу на родные просторы за тридевять земель в спешном порядке отправляются три богатыря и, конечно же, главный придворный конь Юлий.
Качество: WEB-DL 1080p
Видео: MPEG-4 AVC, 5017 Кбит/с, 1920х1080, 25 кадр/с
Аудио: АС3, 6 ch, 384 Кбит/с
Продолжительность: 01:21:10
Перевод: Не требуется
Cубтитры: нет

Скриншоты

MediaInfo

General
Unique ID : 241154080718112136417162938651459596599 (0xB56C96269BC646EB88BDF9AA27523137)
Complete name : D:\3_BOGATYRYA_I_NASLEDNICA_2018_WEB_DL_1080p-BLUEBIRD.mkv
Format : Matroska
Format version : Version 4 / Version 2
File size : 3.12 GiB
Duration : 1 h 21 min
Overall bit rate : 5 510 kb/s
Movie name : 3_BOGATYRYA_I_NASLEDNICA_2018_WEB_DL_1080p-BLUEBIRD
Encoded date : UTC 2019-02-05 10:57:14
Writing application : mkvmerge v6.9.1 ('Blue Panther') 32bit built on Apr 18 2014 18:15:44
Writing library : libebml v1.3.0 + libmatroska v1.4.1
Cover : Yes
Attachments : cover.png
Video
ID : 1
Format : AVC
Format/Info : Advanced Video Codec
Format profile : High@L4
Format settings : CABAC / 4 Ref Frames
Format settings, CABAC : Yes
Format settings, ReFrames : 4 frames
Codec ID : V_MPEG4/ISO/AVC
Duration : 1 h 21 min
Bit rate : 5 017 kb/s
Width : 1 920 pixels
Height : 1 080 pixels
Display aspect ratio : 16:9
Frame rate mode : Constant
Frame rate : 25.000 FPS
Color space : YUV
Chroma subsampling : 4:2:0
Bit depth : 8 bits
Scan type : Progressive
Bits/(Pixel*Frame) : 0.097
Stream size : 2.84 GiB (91%)
Title : 3_BOGATYRYA_I_NASLEDNICA_2018_WEB_DL_1080p-BLUEBIRD
Language : English
Default : Yes
Forced : No
Color range : Limited
Color primaries : BT.709
Transfer characteristics : BT.709
Matrix coefficients : BT.709
Audio
ID : 2
Format : AC-3
Format/Info : Audio Coding 3
Codec ID : A_AC3
Duration : 1 h 21 min
Bit rate mode : Constant
Bit rate : 384 kb/s
Channel(s) : 6 channels
Channel positions : Front: L C R, Side: L R, LFE
Sampling rate : 48.0 kHz
Frame rate : 31.250 FPS (1536 SPF)
Bit depth : 16 bits
Compression mode : Lossy
Stream size : 223 MiB (7%)
Title : [ORIGINAL] DD 5.1 @ 384 kbps (iTunes)
Language : Russian
Service kind : Complete Main
Default : Yes
Forced : No
Menu
00:00:00.000 : en:Глава 1
00:06:40.600 : en:Глава 2
00:13:04.080 : en:Глава 3
00:19:25.120 : en:Глава 4
00:27:00.920 : en:Глава 5
00:33:24.640 : en:Глава 6
00:39:32.680 : en:Глава 7
00:46:08.000 : en:Глава 8
00:53:50.880 : en:Глава 9
01:02:06.080 : en:Глава 10
01:07:50.520 : en:Глава 11
01:12:03.960 : en:Глава 12
[Profile] [PM]
Display posts:    
Reply to topic

Current time is: 17-Jul 10:38

All times are UTC + 3



You cannot post new topics in this forum
You cannot reply to topics in this forum
You cannot edit your posts in this forum
You cannot delete your posts in this forum
You cannot vote in polls in this forum
You cannot attach files in this forum
You cannot download files in this forum