Три богатыря и Наследница престола (2018) WEB-DLRip-AVC от GeneralFilm | iTunes

Reply to topic
 
Author Message

White Smoke ®

Gender: Male

Longevity: 5 months 7 days

Posts: 58

Post 06-Feb-2019 11:11

[Quote]

Три богатыря и Наследница престола Год выпуска: 2018
Жанр: мультфильм, приключения, семейный
Выпущено: Россия
Режиссер: Константин Бронзит
В ролях: Михаил Черняк, Сергей Маковецкий, Дмитрий Быковский-Ромашов, Валерий Соловьев, Олег Куликович, Дмитрий Высоцкий, Александр Боярский, Константин Бронзит
О фильме: Князь Киевский решил назначить наследника престола, только вот незадача - кто это может быть? Родственник, друг семьи или может быть, заморская принцесса? Недолго думая, Князь-батюшка выбирает почти принцессу, а главное родственницу - племянницу Забаву. Нынче она вместе со своим мужем Елисеем (помните верного ученика Добрыни Никитича?) получает образование в далеком Царьграде, где правит коварный Василевс. Чтобы вернуть наследницу на родные просторы за тридевять земель в спешном порядке отправляются три богатыря и, конечно же, главный придворный конь Юлий.
Качество: WEB-DLRip-AVC
Видео: AVC, 1024x576 (16:9), 25.000 fps, 1 465 Kbps (0.099 bit/pixel)
Аудио: АС3, 6 ch, 48 kHz, 384 Kbps
Продолжительность: 01:21:10
Перевод: Не требуется
Cубтитры: нет

Скриншоты





MediaInfo

General
Unique ID : 232623387303251871851833941773362890592 (0xAF01A27E2350157DB8236715F3738760)
Complete name : E:\Запись с тв\Tri bogatyrya i Naslednica prestola.(2018) WEB-DLRip-AVC.by.White Smoke.R.G.Generalfilm.mkv
Format : Matroska
Format version : Version 4 / Version 2
File size : 1.05 GiB
Duration : 1 h 21 min
Overall bit rate : 1 852 kb/s
Movie name : Tri bogatyrya i Naslednica prestola.(2018) WEB-DLRip-AVC.by.White Smoke.R.G.Generalfilm.mkv
Encoded date : UTC 2019-02-06 06:16:44
Writing application : mkvmerge v6.8.0 ('Theme for Great Cities') 64bit built on Mar 2 2014 21:34:26
Writing library : libebml v1.3.0 + libmatroska v1.4.1
Cover : Yes
Attachments : cover.png / cover.png
Video
ID : 1
Format : AVC
Format/Info : Advanced Video Codec
Format profile : High@L4.1
Format settings : CABAC / 10 Ref Frames
Format settings, CABAC : Yes
Format settings, ReFrames : 10 frames
Codec ID : V_MPEG4/ISO/AVC
Duration : 1 h 21 min
Bit rate : 1 465 kb/s
Width : 1 024 pixels
Height : 576 pixels
Display aspect ratio : 16:9
Frame rate mode : Constant
Frame rate : 25.000 FPS
Color space : YUV
Chroma subsampling : 4:2:0
Bit depth : 8 bits
Scan type : Progressive
Bits/(Pixel*Frame) : 0.099
Stream size : 831 MiB (77%)
Writing library : x264 core 148 r2638 7599210
Encoding settings : cabac=1 / ref=10 / deblock=1:-2:-1 / analyse=0x3:0x113 / me=umh / subme=11 / psy=1 / psy_rd=0.00:0.15 / mixed_ref=1 / me_range=32 / chroma_me=1 / trellis=2 / 8x8dct=1 / cqm=0 / deadzone=21,11 / fast_pskip=0 / chroma_qp_offset=-3 / threads=6 / lookahead_threads=1 / sliced_threads=0 / nr=0 / decimate=0 / interlaced=0 / bluray_compat=0 / constrained_intra=0 / bframes=10 / b_pyramid=2 / b_adapt=2 / b_bias=0 / direct=1 / weightb=0 / open_gop=0 / weightp=2 / keyint=250 / keyint_min=25 / scenecut=40 / intra_refresh=0 / rc=2pass / mbtree=0 / bitrate=1465 / ratetol=1.0 / qcomp=0.65 / qpmin=0 / qpmax=69 / qpstep=4 / cplxblur=20.0 / qblur=0.5 / ip_ratio=1.40 / pb_ratio=1.30 / aq=1:0.75
Language : English
Default : Yes
Forced : No
Color range : Limited
Color primaries : BT.709
Transfer characteristics : BT.709
Matrix coefficients : BT.709
Audio
ID : 2
Format : AC-3
Format/Info : Audio Coding 3
Commercial name : Dolby Digital
Codec ID : A_AC3
Duration : 1 h 21 min
Bit rate mode : Constant
Bit rate : 384 kb/s
Channel(s) : 6 channels
Channel layout : L R C LFE Ls Rs
Sampling rate : 48.0 kHz
Frame rate : 31.250 FPS (1536 SPF)
Bit depth : 16 bits
Compression mode : Lossy
Stream size : 223 MiB (21%)
Title : [ORIGINAL] DD 5.1 @ 384 kbps (iTunes)
Language : Russian
Service kind : Complete Main
Default : Yes
Forced : No
Menu
00:00:00.000 : en:Глава 1
00:06:40.600 : en:Глава 2
00:13:04.080 : en:Глава 3
00:19:25.120 : en:Глава 4
00:27:00.920 : en:Глава 5
00:33:24.640 : en:Глава 6
00:39:32.680 : en:Глава 7
00:46:08.000 : en:Глава 8
00:53:50.880 : en:Глава 9
01:02:06.080 : en:Глава 10
01:07:50.520 : en:Глава 11
01:12:03.960 : en:Глава 12
Релиз от:
[Profile] [PM]
Display posts:    
Reply to topic

Current time is: 20-Apr 12:11

All times are UTC + 3



You cannot post new topics in this forum
You cannot reply to topics in this forum
You cannot edit your posts in this forum
You cannot delete your posts in this forum
You cannot vote in polls in this forum
You cannot attach files in this forum
You cannot download files in this forum