Кипелов - 60 (2018) WEBRip от Generalfilm

Reply to topic
 
Author Message

ValkiriaGF ®

Gender: Female

Longevity: 7 months 6 days

Posts: 23

Location: Северная Пальмира

Post 07-Feb-2019 17:11

[Quote]

Кипелов - 60
Год выпуска: 2018
Жанр: Музыкальный, концерт, шоу
Выпущено: Россия, «Телекомпания Рен ТВ»
О фильме: Телеверсия концерта, который состоялся 1 декабря 2018 года в московском Adrenaline Stadium. Валерий Кипелов отмечает 60-летний юбилей. За сорок лет своей музыкальной карьеры он прошёл впечатляющий путь - от советских ВИА "Лейся, песня" и "Поющие сердца" до культовой хэви-металлической группы "Ария" и собственного проекта "#Кипелов". Вы увидите необычный концерт Валерия Александровича, приуроченный к юбилею легендарного вокалиста. Кипелов исполнит как всем известные хиты времён "Арии", так и более редкие песни, которые нечасто можно услышать в живом исполнении.
Качество: WEBRip
Видео: XviD, AVI, 1797 Кбит/с, 720x400
Аудио: AC3, 2 ch, 192 Кбит/с
Продолжительность: 02:14:52
Перевод: Не требуется
Cубтитры: нет

Скриншоты


MediaInfo

General
Complete name : D:\торрент\готовые\Kipelov60.01.12.2018.WEBRip.Generalfilm.avi
Format : AVI
Format/Info : Audio Video Interleave
File size : 1.88 GiB
Duration : 2h 14mn
Overall bit rate : 1 999 Kbps
Writing application : VirtualDubMod 1.5.10.3 | www.virtualdub-fr.org || (build 2550/release)
Writing library : VirtualDubMod build 2550/release
Video
ID : 0
Format : MPEG-4 Visual
Format profile : Advanced Simple@L5
Format settings, BVOP : 1
Format settings, QPel : No
Format settings, GMC : No warppoints
Format settings, Matrix : Custom
Codec ID : XVID
Codec ID/Hint : XviD
Duration : 2h 14mn
Bit rate : 1 797 Kbps
Width : 720 pixels
Height : 400 pixels
Display aspect ratio : 16:9
Frame rate : 25.000 fps
Color space : YUV
Chroma subsampling : 4:2:0
Bit depth : 8 bits
Scan type : Progressive
Compression mode : Lossy
Bits/(Pixel*Frame) : 0.250
Stream size : 1.69 GiB (90%)
Writing library : XviD 1.2.1 (UTC 2008-12-04)
Audio
ID : 1
Format : AC-3
Format/Info : Audio Coding 3
Mode extension : CM (complete main)
Format settings, Endianness : Big
Codec ID : 2000
Duration : 2h 14mn
Bit rate mode : Constant
Bit rate : 192 Kbps
Channel(s) : 2 channels
Channel positions : Front: L R
Sampling rate : 48.0 KHz
Frame rate : 31.250 fps (1536 spf)
Compression mode : Lossy
Stream size : 185 MiB (10%)
Alignment : Split accross interleaves
Interleave, duration : 40 ms (1.00 video frame)
Interleave, preload duratio : 500 ms

Треклист

1. Жить вопреки
2. Власть огня
3. Дама пик
4. Выше
5. На грани
6. Белый ад
7. Гламурная птица
8. Ледяной дождь
+ инструментальный номер
9. Тёмная башня
10. Дыхание тьмы
11. Жажда невозможного
12. Не сейчас
13. Следуй за мной
14. Всё, что было
15. Беспечный ангел
16. Призрачный взвод
17. Свобода
18. Я свободен
19. Встань, страх преодолей / Тореро / Любо, братцы, любо / Воля и разум


Last edited by ValkiriaGF on 2019-02-07 21:17; edited 4 times in total
[Profile] [PM]

lkas1010

Gender: Male

Longevity: 6 months 23 days

Posts: 6

Post 07-Feb-2019 17:43 (after 31 minute)

[Quote]

Спасибо!!!
[Profile] [PM]
Display posts:    
Reply to topic

Current time is: 18-Jun 21:01

All times are UTC + 3



You cannot post new topics in this forum
You cannot reply to topics in this forum
You cannot edit your posts in this forum
You cannot delete your posts in this forum
You cannot vote in polls in this forum
You cannot attach files in this forum
You cannot download files in this forum