Пекарь и красавица [1-17 серия из 17] (2019) WEB-DL 720p от Files-x

Reply to topic
 
Author Message

bond74 ®

Gender: Male

Longevity: 9 months 3 days

Posts: 576

Post 11-Feb-2019 15:47

[Quote]

Пекарь и красавица Год выпуска: 2019
Жанр: Комедия
Выпущено: Россия, Art Pictures Vision, AVK Production
Режиссер: Фёдор Стуков
В ролях: Анна Чиповская, Никита Волков, Даниил Вахрушев, Джеймс Тратас, Алина Алексеева (II), Ленни Хейден, Евгения Дмитриева, Алексей Макаров, Артур Ваха, Арарат Кещян, Алексей Розин, Вячеслав Манучаров, Екатерина Воронина (II), Надежда Игошина, Юлия Сулес, Евгения Ахременко, Ольга Веникова
О фильме: Пекарь из Малаховки случайно встречает суперзвезду Сашу Ларину в туалете ресторана. Простой парень Андрей и не подозревает, что это случайное знакомство изменит его жизнь. Впереди у Андрея полеты в Лондон, вечеринки в стиле «Великого Гэтсби», вспышки фотокамер и вездесущие папарацци. Все бы ничего, но у молодых людей уже есть вторые половинки, которые готовы на все, чтобы вернуть себе своих возлюбленных…

Качество: WEB-DL 720p
Видео: MPEG-4 AVC, ~ 3500 Кбит/с, 1280x720, 25 кадр/с
Аудио: AC3, 2 ch, 192 Кбит/с
Продолжительность: 17 х ~ 00:25:00
Перевод: Не требуется
Субтитры: нет

Скриншоты

MediaInfo

General
Unique ID : 147452351884321709894745850230224255944 (0x6EEE4A3C8D09D106F71327870D80FBC8)
Complete name : H:\Пекарь и красавица.2019.WEB-DL720p\02.Пекарь и красавица.2019.WEB-DL720p.mkv
Format : Matroska
File size : 630 MiB
Duration : 23mn 43s
Overall bit rate : 3 715 Kbps
Writing application : Lavf57.71.100
Writing library : Lavf57.71.100
Video
ID : 1
Format : AVC
Format/Info : Advanced Video Codec
Format profile : High@L4.1
Format settings, CABAC : Yes
Format settings, ReFrames : 5 frames
Codec ID : V_MPEG4/ISO/AVC
Duration : 23mn 43s
Bit rate : 3 500 Kbps
Width : 1 280 pixels
Height : 720 pixels
Display aspect ratio : 16:9
Frame rate mode : Variable
Frame rate : 25.000 fps
Color space : YUV
Chroma subsampling : 4:2:0
Bit depth : 8 bits
Scan type : Progressive
Bits/(Pixel*Frame) : 0.152
Stream size : 585 MiB (93%)
Writing library : x264 core 148
Encoding settings : cabac=1 / ref=5 / deblock=1:0:0 / analyse=0x3:0x113 / me=hex / subme=8 / psy=1 / psy_rd=1.00:0.00 / mixed_ref=1 / me_range=16 / chroma_me=1 / trellis=2 / 8x8dct=1 / cqm=0 / deadzone=21,11 / fast_pskip=1 / chroma_qp_offset=-2 / threads=22 / lookahead_threads=3 / sliced_threads=0 / nr=0 / decimate=1 / interlaced=0 / bluray_compat=0 / constrained_intra=0 / bframes=3 / b_pyramid=2 / b_adapt=1 / b_bias=0 / direct=3 / weightb=1 / open_gop=0 / weightp=2 / keyint=250 / keyint_min=25 / scenecut=0 / intra_refresh=0 / rc_lookahead=50 / rc=abr / mbtree=1 / bitrate=3500 / ratetol=1.0 / qcomp=0.60 / qpmin=0 / qpmax=69 / qpstep=4 / ip_ratio=1.40 / aq=1:1.00
Language : English
DURATION : 00:23:43.000000000
Audio
ID : 2
Format : AC-3
Format/Info : Audio Coding 3
Mode extension : CM (complete main)
Codec ID : A_AC3
Duration : 23mn 43s
Bit rate mode : Constant
Bit rate : 192 Kbps
Channel(s) : 2 channels
Channel positions : Front: L R
Sampling rate : 44.1 KHz
Bit depth : 16 bits
Compression mode : Lossy
Delay relative to video : 1mn 5s
Stream size : 32.6 MiB (5%)
Language : English
DURATION : 00:23:42.872000000
Релиз от:
[Profile] [PM]
Display posts:    
Reply to topic

Current time is: 17-Aug 21:20

All times are UTC + 3



You cannot post new topics in this forum
You cannot reply to topics in this forum
You cannot edit your posts in this forum
You cannot delete your posts in this forum
You cannot vote in polls in this forum
You cannot attach files in this forum
You cannot download files in this forum