Год культуры [1 сезон: 1-6 серия из 20] (2018) WEBRip 1080p

Ответить на тему
 
Автор Сообщение

White Smoke ®

Пол: Мужской

Стаж: 3 месяца 3 дня

Сообщений: 29

Создавать темы 22-Ноя-2018 01:35

[Цитировать]

Год культуры
Год выпуска: 2018
Жанр: Комедия
Выпущено: Россия, Comedy Club Production, Art Pictures Vision
Режиссер: Тито Калатозишвили
В ролях: Фёдор Бондарчук, Мария Ахметзянова, Александр Лыков, Александр Яценко, Риналь Мухаметов, Ольга Медынич, Валерия Шкирандо, Александр Обласов, Мария Карпова, Александр Ильин, Иван Мартынов, Игорь Угольников, Виктория Верберг
О фильме: Нерадивый чиновник Виктор Сычев отправляется «в ссылку» на кафедру словесности в региональный вуз. Там ему придется сменить уютное кожаное кресло и просторный кабинет на шаткую табуретку и пыльную аудиторию. Что может быть лучше для служителя Министерства образования, чем полное погружение в это самое образование? И чем может обернуться для высокопоставленного чиновника халатное отношение к собственным обязанностям?
Качество: WEBRip 1080p
Видео: AVC, 1920x1080 (16:9), 25.000 fps, 5 000 Kbps, 0.096 bit/pixel
Аудио: AC3, 2 ch, 192 Кбит/с
Продолжительность: 6 х ~ 00:45:00
Перевод: Не требуется
Cубтитры: нет

Скриншоты

MediaInfo

General
Unique ID : 174906495269867755752884100808202105814 (0x8395C403008072A0836A42494D25B3D6)
Complete name : E:\God.kulturi.2018.WEB-DL.(1080p).Getty\God.kulturi.e01.2018.WEB-DL.(1080p).Getty.mkv
Format : Matroska
Format version : Version 4 / Version 2
File size : 1.60 GiB
Duration : 44 min 24 s
Overall bit rate mode : Constant
Overall bit rate : 5 173 kb/s
Movie name : God.kulturi.e01.2018.WEB-DL.(1080p).Getty
Encoded date : UTC 2018-11-21 20:40:31
Writing application : mkvmerge v7.8.0 ('River Man') 32bit built on Mar 27 2015 16:18:02
Writing library : libebml v1.3.1 + libmatroska v1.4.2
Video
ID : 1
Format : AVC
Format/Info : Advanced Video Codec
Format profile : Baseline@L4
Format settings : 4 Ref Frames
Format settings, CABAC : No
Format settings, ReFrames : 4 frames
Codec ID : V_MPEG4/ISO/AVC
Duration : 44 min 24 s
Bit rate mode : Constant
Bit rate : 5 000 kb/s
Width : 1 920 pixels
Height : 1 080 pixels
Display aspect ratio : 16:9
Frame rate mode : Constant
Frame rate : 25.000 FPS
Standard : PAL
Color space : YUV
Chroma subsampling : 4:2:0
Bit depth : 8 bits
Scan type : Progressive
Bits/(Pixel*Frame) : 0.096
Stream size : 1.54 GiB (96%)
Default : Yes
Forced : No
Color range : Limited
Color primaries : BT.709
Transfer characteristics : BT.709
Matrix coefficients : BT.709
Audio
ID : 2
Format : AC-3
Format/Info : Audio Coding 3
Commercial name : Dolby Digital
Codec ID : A_AC3
Duration : 44 min 24 s
Bit rate mode : Constant
Bit rate : 192 kb/s
Channel(s) : 2 channels
Channel layout : L R
Sampling rate : 48.0 kHz
Frame rate : 31.250 FPS (1536 SPF)
Bit depth : 16 bits
Compression mode : Lossy
Stream size : 61.0 MiB (4%)
Service kind : Complete Main
Default : Yes
Forced : No

Раздача ведётся путём добавления новых серий

Внимание! Раздача ведётся путём добавления новых серий; при каждом добавлении создаётся новый торрент.
Чтобы начать докачку новой серии, пользователям необходимо сделать следующее:
1. Остановить скачивание;
2. Удалить старый торрент у себя из клиента (старые серии удалять не надо);
3. Скачать новый торрент и запустить его у себя в клиенте вместо старого, при этом указать клиенту путь в старую папку куда и должно происходить скачивание новых серий. Ваш клиент при этом должен произвести хеширование (проверку) старой папки и будет докачивать только те серии, которых у вас ещё нет. Старые серии при этом не удаляются, а продолжают раздаваться! Eсли вы уже удалили старые серии, то предотвратить повторную закачку старых серий можно, отжав галочку в соответствующих местах при запуске нового торрента.
[Профиль] [ЛС]

White Smoke ®

Пол: Мужской

Стаж: 3 месяца 3 дня

Сообщений: 29

Создавать темы 06-Дек-2018 01:52 (спустя 14 дней)

[Цитировать]

+6
[Профиль] [ЛС]

Alone_Kedr

Пол: Мужской

Стаж: 2 месяца 1 день

Сообщений: 7

Откуда: СССР

Создавать темы 16-Янв-2019 15:48 (спустя 1 месяц 10 дней)

[Цитировать]

на +6 сериал закончился?
[Профиль] [ЛС]

Серый1779

Пол: Мужской

Стаж: 3 месяца 3 дня

Сообщений: 226

Откуда: Украина

Создавать темы 29-Янв-2019 14:36 (спустя 12 дней)

[Цитировать]

Поглощено. http://generalfilm.website/viewtopic.php?t=3932
[Профиль] [ЛС]
Показать сообщения:    
Ответить на тему

Текущее время: 16-Фев 11:21

Часовой пояс: UTC + 3



Вы не можете начинать темы
Вы не можете отвечать на сообщения
Вы не можете редактировать свои сообщения
Вы не можете удалять свои сообщения
Вы не можете голосовать в опросах
Вы не можете прикреплять файлы к сообщениям
Вы не можете скачивать файлы