Discovery: Золотая лихорадка / Gold Rush [9 сезон:1-12 серия из 20] (2018) HDTV 1080p от GeneralFilm3

Ответить на тему
 
Автор Сообщение

Abakan2000 ®

Пол: Мужской

Стаж: 2 месяца 8 дней

Сообщений: 7

Создавать темы 13-Ноя-2018 16:25

[Цитировать]

Золотая лихорадка / Gold Rush
Год выпуска: 2018
Жанр: Документальный, природа, география, путешествия, приключения, исследование
Выпущено: США, Raw Television, Discovery Channel
Режисёр: Кристофер Голдинг
В ролях: Паркер Шнабель, Тони Битс, Рик Несс, Моника Битс, Минни Битс
О фильме: Живя вдали от цивилизации на Аляске, предприимчивые и всем знакомые золотоискатели продолжают поиски драгоценного металла. С новыми работниками и машинами, новыми участками и способами добычи золота ставки повышаются, как никогда прежде. Но принесёт ли больший риск большую прибыль? У команд есть огромные драги, а значит, можно поставить перед собой самые амбициозные цели за всю историю программы! В то же время наших героев ждут серьезные трудности, им придется трудиться круглосуточно, чтобы обслуживать дорогое оборудование. При этом успех и шанс разбогатеть будет во многом зависеть от того, смогут ли члены команд ужиться друг с другом.

Качество: HDTV 1080p
Видео: MPEG-4 AVC, ~ 7000 Кбит/с, 1920x1080
Аудио: MP2, 2 ch, 224 Кбит/с
Продолжительность: 13 x ~ 00:44:00
Перевод: Дублированный

Скриншоты


MediaInfo

General
ID : 1 (0x1)
Complete name : H:\Раздачи 3\Золотая лихорадка s09 1080p GeneralFilm\01 Золотая лихорадка GeneralFilm.ts
Format : MPEG-TS
File size : 4.57 GiB
Duration : 1 h 27 min
Overall bit rate mode : Variable
Overall bit rate : 7 480 kb/s
Video
ID : 224 (0xE0)
Menu ID : 1 (0x1)
Format : AVC
Format/Info : Advanced Video Codec
Format profile : High@L4.2
Format settings : CABAC / 3 Ref Frames
Format settings, CABAC : Yes
Format settings, ReFrames : 3 frames
Codec ID : 27
Duration : 1 h 27 min
Bit rate mode : Constant
Bit rate : 7 000 kb/s
Width : 1 920 pixels
Height : 1 080 pixels
Display aspect ratio : 16:9
Frame rate : 50.000 FPS
Standard : PAL
Color space : YUV
Chroma subsampling : 4:2:0
Bit depth : 8 bits
Scan type : Progressive
Bits/(Pixel*Frame) : 0.068
Stream size : 4.21 GiB (92%)
Color range : Limited
Color primaries : BT.709
Transfer characteristics : BT.709
Matrix coefficients : BT.709
Audio
ID : 4097 (0x1001)
Menu ID : 1 (0x1)
Format : MPEG Audio
Format version : Version 1
Format profile : Layer 2
Codec ID : 3
Duration : 1 h 27 min
Bit rate mode : Constant
Bit rate : 224 kb/s
Channel(s) : 2 channels
Sampling rate : 48.0 kHz
Frame rate : 41.667 FPS (1152 SPF)
Compression mode : Lossy
Delay relative to video : 8 ms
Stream size : 140 MiB (3%)
Language : English

Внимание! Раздача ведётся путём добавления новых серий

Внимание! Раздача ведётся путём добавления новых серий!
Внимание! Раздача ведётся путём добавления новых серий; при каждом добавлении создfётся новый торрент. Чтобы начать докачку новой серии, пользователям необходимо сделать следующее: (1) остановить скачивание, (2) удалить старый торрент у себя из клиента (старые серии удалять не надо), (3) скачать новый торрент и запустить его у себя в клиенте вместо старого, при этом указать клиенту путь в старую папку куда и должно происходить скачивание новых серий.
Ваш клиент при этом должен произвести хеширование (проверку) старой папки (если не производит сам - помогите ему сделать это), и будет докачивать только те серии которых у вас ещё нет. Старые серии при этом не удаляются, а продолжают раздаваться!
Eсли вы уже удалили старые серии, то предотвратить повторную закачку старых серий можно, отжав галочку в соответсвующих местах при запуске нового торрента
Благодарю за отличный постер ValkiriaGF
Релиз от:


Последний раз редактировалось: Abakan2000 (2019-01-19 07:38), всего редактировалось 1 раз
[Профиль] [ЛС]

runetzone

Пол: Мужской

Стаж: 15 дней

Сообщений: 55

Откуда: Санкт-Петербург

Создавать темы 12-Янв-2019 20:51 (спустя 1 месяц 29 дней)

[Цитировать]

Спасибо за раздачу!!! ay
[Профиль] [ЛС]
Показать сообщения:    
Ответить на тему

Текущее время: 22-Янв 00:03

Часовой пояс: UTC + 3



Вы не можете начинать темы
Вы не можете отвечать на сообщения
Вы не можете редактировать свои сообщения
Вы не можете удалять свои сообщения
Вы не можете голосовать в опросах
Вы не можете прикреплять файлы к сообщениям
Вы не можете скачивать файлы