Робин Гуд: Начало / Robin Hood (2018) BDRip 1080p От R.G.Generalfilm DUB [iTunes]

Ответить на тему
 
Автор Сообщение

White Smoke ®

Пол: Мужской

Стаж: 4 месяца 5 дней

Сообщений: 47

Создавать темы 23-Фев-2019 16:31

[Цитировать]

Робин Гуд: Начало / Robin Hood
Год выпуска: 2018
Жанр: Боевик, триллер, приключения
Выпущено: США, «Централ Партнершип»
Режиссер: Отто Батхёрст
В ролях: Тэрон Эджертон, Джейми Фокс, Бен Мендельсон, Ив Хьюсон, Джейми Дорнан, Тим Минчин, Пол Андерсон, Ф. Мюррэй Абрахам, Йен Пек, Корнелиус Бут
О фильме: Ветеран Крестовых походов Робин и его командир бросают вызов продажным приспешникам английской короны..
Качество: BDRip 1080p
Видео: AVC, 1920x800 (2.40:1), 23.976 fps, 6 800 Kbps (0.185 bit/pixel)
Аудио: AC3, 48.0 KHz, 6 ch, 384 Kbps
Продолжительность: 01:56:53
Перевод: Дублированный [iTunes]
Cубтитры: нет

Скриншоты




MediaInfo

Общее
General
Unique ID : 195291925262756965101003873249735714801 (0x92EBDB4F1F43681393EE9B809A33A7F1)
Complete name : E:\Запись с тв\Robin.Hood.2018..BDRip-1080p.Rip.by.White Smoke.R.G.Generalfilm.mkv
Format : Matroska
Format version : Version 4 / Version 2
File size : 5.83 GiB
Duration : 1 h 56 min
Overall bit rate : 7 176 kb/s
Movie name : Robin.Hood.2018..BDRip-1080p.Rip.by.White Smoke.R.G.Generalfilm.mkv
Encoded date : UTC 2019-02-23 11:33:10
Writing application : mkvmerge v6.8.0 ('Theme for Great Cities') 64bit built on Mar 2 2014 21:34:26
Writing library : libebml v1.3.0 + libmatroska v1.4.1
Video
ID : 1
Format : AVC
Format/Info : Advanced Video Codec
Format profile : High@L4.1
Format settings : CABAC / 5 Ref Frames
Format settings, CABAC : Yes
Format settings, ReFrames : 5 frames
Codec ID : V_MPEG4/ISO/AVC
Duration : 1 h 56 min
Bit rate : 6 800 kb/s
Width : 1 920 pixels
Height : 800 pixels
Display aspect ratio : 2.40:1
Frame rate mode : Constant
Frame rate : 23.976 (24000/1001) FPS
Color space : YUV
Chroma subsampling : 4:2:0
Bit depth : 8 bits
Scan type : Progressive
Bits/(Pixel*Frame) : 0.185
Stream size : 5.40 GiB (93%)
Writing library : x264 core 148 r2638 7599210
Encoding settings : cabac=1 / ref=5 / deblock=1:-2:-1 / analyse=0x3:0x113 / me=umh / subme=11 / psy=1 / psy_rd=0.00:0.15 / mixed_ref=1 / me_range=32 / chroma_me=1 / trellis=2 / 8x8dct=1 / cqm=0 / deadzone=21,11 / fast_pskip=0 / chroma_qp_offset=-3 / threads=6 / lookahead_threads=1 / sliced_threads=0 / nr=0 / decimate=0 / interlaced=0 / bluray_compat=0 / constrained_intra=0 / bframes=0 / weightp=2 / keyint=240 / keyint_min=23 / scenecut=40 / intra_refresh=0 / rc=2pass / mbtree=0 / bitrate=6800 / ratetol=1.0 / qcomp=0.65 / qpmin=0 / qpmax=69 / qpstep=4 / cplxblur=20.0 / qblur=0.5 / ip_ratio=1.40 / aq=1:0.75
Language : English
Default : Yes
Forced : No
Color range : Limited
Color primaries : BT.709
Transfer characteristics : BT.709
Matrix coefficients : BT.709
Audio
ID : 2
Format : AC-3
Format/Info : Audio Coding 3
Commercial name : Dolby Digital
Codec ID : A_AC3
Duration : 1 h 56 min
Bit rate mode : Constant
Bit rate : 384 kb/s
Channel(s) : 6 channels
Channel layout : L R C LFE Ls Rs
Sampling rate : 48.0 kHz
Frame rate : 31.250 FPS (1536 SPF)
Bit depth : 16 bits
Compression mode : Lossy
Stream size : 319 MiB (5%)
Title : iTunes
Language : Russian
Service kind : Complete Main
Default : Yes
Forced : Yes
Menu
00:00:00.000 : en:Глава 01
00:05:36.336 : en:Глава 02
00:15:27.218 : en:Глава 03
00:24:02.274 : en:Глава 04
00:28:35.047 : en:Глава 05
00:35:03.977 : en:Глава 06
00:43:38.074 : en:Глава 07
00:49:34.346 : en:Глава 08
00:58:16.409 : en:Глава 09
01:04:07.051 : en:Глава 10
01:10:30.434 : en:Глава 11
01:21:29.259 : en:Глава 12
01:28:08.408 : en:Глава 13
01:37:32.513 : en:Глава 14
01:41:49.687 : en:Глава 15
01:44:48.532 : en:Глава 16
Релиз от:
[Профиль] [ЛС]
Показать сообщения:    
Ответить на тему

Текущее время: 19-Мар 05:31

Часовой пояс: UTC + 3



Вы не можете начинать темы
Вы не можете отвечать на сообщения
Вы не можете редактировать свои сообщения
Вы не можете удалять свои сообщения
Вы не можете голосовать в опросах
Вы не можете прикреплять файлы к сообщениям
Вы не можете скачивать файлы