Три в одном [4 сезон: 1-2 серия из 2] (2019) WEB-DLRip от Files-x

Reply to topic
 
Author Message

bond74 ®

Gender: Male

Longevity: 6 months 10 days

Posts: 446

Post 15-Mar-2019 21:31

[Quote]

Три в одном Год выпуска: 2019
Жанр: Детектив
Выпущено: Россия, Свэлл Фильм
Режиссер:Илья Хотиненко
В ролях: Наталья Рычкова, Александр Ратников, Артём Семакин, Сергей Белякович (II), Андрей Карако, Сергей Паршин, Роман Полянский, Юлия Зимина, Александр Стефанцов
О фильме: Одноклассника Инги Артема Циркина подозревают в убийстве его девушки. Инга уговаривает Михаила стать адвокатом Артема и, всячески скрывая от Журавлева, начинает собственное расследование. Но как только ей удается предложить следствию убедительную альтернативную версию произошедшего, происходит второе убийство, совпавшее с выходом Артема на свободу, что заставляет даже Ингу усомниться в его невиновности...захотел бы посвятить Ингу..
Качество: WEB-DLRip
Видео: XviD, ~ 1600 Кбит/с, 720x400, 25 кадр/с
Аудио: AC3, 2 ch, 192 Кбит/с
Продолжительность: 2 x ~ 00:45:00
Перевод: Не требуется
Субтитры: нет

Скриншоты

MediaInfo

General
Complete name : C:\Users\user\Downloads\Video\01.Три в одном.S04.(2019).WEB-DLRip.Files-x.avi
Format : AVI
Format/Info : Audio Video Interleave
File size : 589 MiB
Duration : 45mn 44s
Overall bit rate : 1 802 Kbps
Writing application : VirtualDubMod 1.5.10.3 | www.virtualdub-fr.org || (build 2550/release)
Writing library : VirtualDubMod build 2550/release
Video
ID : 0
Format : MPEG-4 Visual
Format profile : Advanced Simple@L5
Format settings, BVOP : 1
Format settings, QPel : No
Format settings, GMC : No warppoints
Format settings, Matrix : Custom
Codec ID : XVID
Codec ID/Hint : XviD
Duration : 45mn 44s
Bit rate : 1 600 Kbps
Width : 720 pixels
Height : 400 pixels
Display aspect ratio : 16:9
Frame rate : 25.000 fps
Color space : YUV
Chroma subsampling : 4:2:0
Bit depth : 8 bits
Scan type : Progressive
Compression mode : Lossy
Bits/(Pixel*Frame) : 0.222
Stream size : 523 MiB (89%)
Writing library : XviD 73
Audio
ID : 1
Format : AC-3
Format/Info : Audio Coding 3
Mode extension : CM (complete main)
Codec ID : 2000
Duration : 45mn 44s
Bit rate mode : Constant
Bit rate : 192 Kbps
Channel(s) : 2 channels
Channel positions : Front: L R
Sampling rate : 48.0 KHz
Bit depth : 16 bits
Compression mode : Lossy
Stream size : 62.8 MiB (11%)
Alignment : Split accross interleaves
Interleave, duration : 40 ms (1.00 video frame)
Interleave, preload duration : 500 ms
Релиз от:
[Profile] [PM]
Display posts:    
Reply to topic

Current time is: 25-May 15:11

All times are UTC + 3



You cannot post new topics in this forum
You cannot reply to topics in this forum
You cannot edit your posts in this forum
You cannot delete your posts in this forum
You cannot vote in polls in this forum
You cannot attach files in this forum
You cannot download files in this forum