Мажор [3 сезон: 1-16 серии из 16] (2018) WEB-DLRip, WEBRip от R.G.GeneralFilm

Ответить на тему
 
Автор Сообщение

vsobbol ®

Пол: Мужской

Стаж: 3 месяца 1 день

Сообщений: 108

Откуда: Донецк

Создавать темы 17-Ноя-2018 00:54

[Цитировать]

Мажор: Сезон 3
Год выпуска: 2018
Жанр: Криминал, драма
Выпущено: Россия, Продюсерский центр «Среда»
Режиссер: Игорь Твердохлебов
В ролях: Павел Прилучный, Карина Разумовская, Дмитрий Шевченко, Александр Обласов, Дмитрий Лысенков, Игорь Черневич, Михаил Елисеев, Анна Цуканова-Котт, Дана Абызова, Игорь Жижикин, Анна Вартанян, Михаил Шеломенцев, Даниил Кокин, Игорь Грабузов, Антон Чернов, Владимир Селезнёв (II), Игорь Ключников
О фильме: Игорь Соколовский давно перестал быть тем Мажором, для которого служба в полиции – вынужденная «ссылка». Давняя смерть матери и недавнее убийство отца – два события, определившие его дальнейшую жизнь – могут быть раскрыты во многом благодаря этой службе. Мажор растёт как профессионал, ежедневно работая над раскрытием различных преступлений, но расследование главной драмы его жизни ставит перед ним новые задачи. Чтобы отомстить за смерть отца, он в совершенстве овладел бизнес-стратегиями, чтобы найти и наказать убийцу матери, ему нужно освоить нечто совершенно новое. И самое сложное при этом – остаться в рамках закона. В поисках преступника Мажор окажется у черты, но останутся ли у него законные средства, чтобы наказать убийцу?

Качество: WEB-DLRip, WEBRip
Видео: XviD build 73, 720x400 (16:9), 25.000 fps, ~ 1420 Kbps (~ 0.200 bit/pixel)
Аудио: 48.0 kHz, AC3, 2/0 ch, 192 kbps
Продолжительность: 16 x ~ 00:50:00
Перевод: Не требуется
Субтитры: нет

Скриншоты

MediaInfo

General
Complete name : D:RazdachiMazhor.s03.2018.XviD.WEB-DLRip.GeneralFilmMazhor.s03.e01.avi
Format : AVI
Format/Info : Audio Video Interleave
File size : 557 MiB
Duration : 48 min 11 s
Overall bit rate : 1 616 kb/s
Writing application : VirtualDubMod 1.5.10.3 | www.virtualdub-fr.org || (build 2550/release)
Writing library : VirtualDubMod build 2550/release
Video
ID : 0
Format : MPEG-4 Visual
Format profile : Advanced Simple@L5
Format settings, BVOP : 1
Format settings, QPel : No
Format settings, GMC : No warppoints
Format settings, Matrix : Custom
Codec ID : XVID
Codec ID/Hint : XviD
Duration : 48 min 11 s
Bit rate : 1 414 kb/s
Width : 720 pixels
Height : 400 pixels
Display aspect ratio : 16:9
Frame rate : 25.000 FPS
Color space : YUV
Chroma subsampling : 4:2:0
Bit depth : 8 bits
Scan type : Progressive
Compression mode : Lossy
Bits/(Pixel*Frame) : 0.196
Stream size : 487 MiB (88%)
Writing library : XviD 73
Audio
ID : 1
Format : AC-3
Format/Info : Audio Coding 3
Format settings, Endianness : Big
Codec ID : 2000
Duration : 48 min 11 s
Bit rate mode : Constant
Bit rate : 192 kb/s
Channel(s) : 2 channels
Channel positions : Front: L R
Sampling rate : 48.0 kHz
Frame rate : 31.250 FPS (1536 SPF)
Bit depth : 16 bits
Compression mode : Lossy
Stream size : 66.2 MiB (12%)
Alignment : Split accross interleaves
Interleave, duration : 40 ms (1.00 video frame)
Interleave, preload duratio : 500 ms
Service kind : Complete Main
Релиз от:
[Профиль] [ЛС]
Показать сообщения:    
Ответить на тему

Текущее время: 17-Фев 20:00

Часовой пояс: UTC + 3



Вы не можете начинать темы
Вы не можете отвечать на сообщения
Вы не можете редактировать свои сообщения
Вы не можете удалять свои сообщения
Вы не можете голосовать в опросах
Вы не можете прикреплять файлы к сообщениям
Вы не можете скачивать файлы