Чисто московские убийства [1-2 сезоны: 1-16 серии из 16] (2017-2018) WEB-DLRip от R.G.GeneralFilm

Ответить на тему
 
Автор Сообщение

vsobbol ®

Пол: Мужской

Стаж: 3 месяца 1 день

Сообщений: 108

Откуда: Донецк

Создавать темы 17-Ноя-2018 01:11

[Цитировать]

Чисто московские убийства
Год выпуска: 2017-2018
Жанр: детектив, криминальный фильм
Выпущено: Россия, Телекомпания «Маурис Филм»
Режиссер: Филипп Коршунов
В ролях: Людмила Чурсина, Сергей Беляев, Дмитрий Мазуров, Татьяна Курова, Ирина Крутик, Александр Яцко, Аглая Тарасова, Дарья Дроздовская, Екатерина Семёнова, Ольга Богданова, Марианна Шульц, Серафима Низовская, Константин Быков, Евгения Бордзиловская, Алла Будницкая, Эвклид Кюрдзидис, Леонид Каневский, Галина Польских, Михаил Дорожкин, Людмила Житкова, Андрей Капустин, Наталья Рудова, Евгения Ахременко
О фильме: Владелица сети элитных салонов красоты Екатерина Власова — женщина с очень скверным характером. Она своенравна, цинична и крайне упряма. Благодаря этим свойствам она создала с нуля свою «империю», — а старомодные представления о границе между добром и злом помогают ей процветать. Но жизнь в столице заставляет Екатерину проявить себя в новом амплуа — теперь со своим фирменным упрямством она раскрывает преступные замыслы и криминальные интриги. Даже следователь Шилов, поначалу не скрывавший своей антипатии к «вездесущей старухе», вынужден признать ее талант к дедукции. Чтобы успешно ловить преступников, Екатерина должна идти в ногу со временем, — и она упорно осваивает новые технологии и гаджеты...

Качество: WEB-DLRip
Видео: XviD build 73, 720x400 (16:9), 25.000 fps, ~ 1550 Kbps (~ 0.220 bit/pixel)
Аудио: 48.0 kHz, AC3, 2/0 ch, 192 kbps
Продолжительность: 16 x ~ 00:44:00
Перевод: Не требуется
Субтитры: нет

Скриншоты



MediaInfo

General
Complete name : D:\Razdachi\Chisto.Moskovskie.Ubijstva.2017.XviD.WEB-DLRip.GeneralFilm\Chisto.Moskovskie.Ubijstva.16.avi
Format : AVI
Format/Info : Audio Video Interleave
File size : 557 MiB
Duration : 45 min 4 s
Overall bit rate : 1 727 kb/s
Writing application : VirtualDubMod 1.5.10.3 | www.virtualdub-fr.org || (build 2550/release)
Writing library : VirtualDubMod build 2550/release
Video
ID : 0
Format : MPEG-4 Visual
Format profile : Advanced Simple@L5
Format settings, BVOP : 1
Format settings, QPel : No
Format settings, GMC : No warppoints
Format settings, Matrix : Custom
Codec ID : XVID
Codec ID/Hint : XviD
Duration : 45 min 4 s
Bit rate : 1 525 kb/s
Width : 720 pixels
Height : 400 pixels
Display aspect ratio : 16:9
Frame rate : 25.000 FPS
Color space : YUV
Chroma subsampling : 4:2:0
Bit depth : 8 bits
Scan type : Progressive
Compression mode : Lossy
Bits/(Pixel*Frame) : 0.212
Stream size : 492 MiB (88%)
Writing library : XviD 73
Audio
ID : 1
Format : AC-3
Format/Info : Audio Coding 3
Format settings, Endianness : Big
Codec ID : 2000
Duration : 45 min 4 s
Bit rate mode : Constant
Bit rate : 192 kb/s
Channel(s) : 2 channels
Channel positions : Front: L R
Sampling rate : 48.0 kHz
Frame rate : 31.250 FPS (1536 SPF)
Bit depth : 16 bits
Compression mode : Lossy
Stream size : 61.9 MiB (11%)
Alignment : Split accross interleaves
Interleave, duration : 40 ms (1.00 video frame)
Interleave, preload duratio : 500 ms
Service kind : Complete Main
Релиз от:
[Профиль] [ЛС]
Показать сообщения:    
Ответить на тему

Текущее время: 17-Фев 11:50

Часовой пояс: UTC + 3



Вы не можете начинать темы
Вы не можете отвечать на сообщения
Вы не можете редактировать свои сообщения
Вы не можете удалять свои сообщения
Вы не можете голосовать в опросах
Вы не можете прикреплять файлы к сообщениям
Вы не можете скачивать файлы