Человек и закон [эфир 23.11] (2018) SATRip от GeneralFilm

Ответить на тему
 
Автор Сообщение

Starik60 ®

Пол: Мужской

Стаж: 3 месяца 5 дней

Сообщений: 113

Откуда: Москва, Россия

Создавать темы 23-Ноя-2018 16:47

[Цитировать]

Человек и закон
Год выпуска: 2018
Жанр: Документальный, расследование
Выпущено: Россия, Телекомпания "Останкино"
Режиссер: Денис Пиманов
Ведущий: Алексей Пиманов
О фильме: Общественно-политическая программа "Человек и закон" выходит на главном телеканале страны уже 35 лет (Алексей Пиманов ведет программу с 1996 года). Столь "преклонный возраст" ничуть не мешает программе оставаться одной из самых востребованных и актуальных на отечественном телевидении. Быть может потому, что основные темы - борьба с организованной преступностью, расследования о коррупции в высших эшелонах власти, криминальные истории…
Официальный сайт
Качество: SATRip
Видео: XviD, 1600 Кбит/с, 720x400
Аудио: AC3, 2 ch, 192 Кбит/с
Продолжительность: 00:51:00
Перевод: Не требуется

Скриншоты


MediaInfo

General
Complete name : G:\Раздачи 2\Человек и закон 23.11.2018.GeneralFilm.avi
Format : AVI
Format/Info : Audio Video Interleave
File size : 627 MiB
Duration : 48 min 39 s
Overall bit rate : 1 802 kb/s
Writing application : VirtualDubMod 1.5.10.3 | www.virtualdub-fr.org || (build 2550/release)
Writing library : VirtualDubMod build 2550/release
Video
ID : 0
Format : MPEG-4 Visual
Format profile : Advanced Simple@L5
Format settings : BVOP1 / Custom Matrix
Format settings, BVOP : 1
Format settings, QPel : No
Format settings, GMC : No warppoints
Format settings, Matrix : Custom
Codec ID : XVID
Codec ID/Hint : XviD
Duration : 48 min 39 s
Bit rate : 1 600 kb/s
Width : 720 pixels
Height : 400 pixels
Display aspect ratio : 16:9
Frame rate : 25.000 FPS
Color space : YUV
Chroma subsampling : 4:2:0
Bit depth : 8 bits
Scan type : Progressive
Compression mode : Lossy
Bits/(Pixel*Frame) : 0.222
Stream size : 557 MiB (89%)
Writing library : XviD 73
Audio
ID : 1
Format : AC-3
Format/Info : Audio Coding 3
Commercial name : Dolby Digital
Codec ID : 2000
Duration : 48 min 39 s
Bit rate mode : Constant
Bit rate : 192 kb/s
Channel(s) : 2 channels
Channel layout : L R
Sampling rate : 48.0 kHz
Frame rate : 31.250 FPS (1536 SPF)
Bit depth : 16 bits
Compression mode : Lossy
Stream size : 66.8 MiB (11%)
Alignment : Split accross interleaves
Interleave, duration : 40 ms (1.00 video frame)
Interleave, preload duratio : 500 ms
Service kind : Complete Main

Содержание

Право на порядочность. Москва. Молодой человек заступился за женщину. А теперь может получить реальный срок и сесть на 3 года — за сломанную челюсть обидчика.
Суд наконец-то вынес вердикт по делу Виталины Цымбалюк-Романовской. О вмешательстве в личную жизнь Армена Джигарханяна. 250 часов исправительных работ и 200 тысяч рублей в качестве компенсации морального вреда. И это не все новости о некогда звездной паре.
«День достоинства и свободы». Ровно 5 лет назад в Киеве начались протесты, а на майдане Незалежности появились первые палатки. Где они, «герои вчерашних дней». Кто они — «герои дней сегодняшних». Хроники смутного времени.
Многодетная семья Илющук одним росчерком пера потеряла московскую прописку. Мать жены устроила всем «праздник». Опека, которая призвана стоять на страже интересов несовершеннолетних детей, почему-то даже не пикнула. Судья вынесла вердикт заочно. А это значит — ни детсада и школы, ни медицинского обслуживания. На нервной почве у Оксаны Илюшук, мамы шестерых детей, развилась онкология.
Соседские войны. Нарочно не придумаешь: и двери жгут, и в суп плюют, и издеваются, как могут. Певец «Мистер Кредо» любил по ночам слишком громко слушать музыку. «Достал» соседей так, что они вызвали наряд полиции. И меломана забрали в кутузку. В одной коммунальной квартире отныне запрещено жильцам принимать душ больше 20 минут. Отчаявшаяся женщина, которая в буквальном смысле заработала себе астму на соседском сигаретном дыму, обратилась в суд и выиграла! Суд запретил ее соседям курить на балконе (хотя балкон — даже не место общественного пользования, а что ни на есть частная собственность). Но теперь — прецедент!
Релиз от:
[Профиль] [ЛС]
Показать сообщения:    
Ответить на тему

Текущее время: 17-Фев 20:01

Часовой пояс: UTC + 3



Вы не можете начинать темы
Вы не можете отвечать на сообщения
Вы не можете редактировать свои сообщения
Вы не можете удалять свои сообщения
Вы не можете голосовать в опросах
Вы не можете прикреплять файлы к сообщениям
Вы не можете скачивать файлы