Неуловимые [1 сезон: серии 1-8 из 8] (2017) HDTV 1080p от Generalfilm

Reply to topic
 
Author Message

Winchester96 ®

Gender: Male

Longevity: 7 months 4 days

Posts: 12

Location: Казахстан

Post 17-Nov-2018 14:27

[Quote]

Неуловимые
Год выпуска: 2018
Жанр: Комедия, приключения
Выпущено: Россия
Режиссер: Владимир Виноградов
В ролях: Оксана Фандера (Фирочка Танцорка), Сергей Газаров (Кобзарь), Александр Лыков (Лаврик), Юрий Стоянов (Бачило, начальник УГРО Одессы), Евгений Березин, Таисия Шипилова, Николай Сороканов (Суран), Максим Емельянов, Владислав Тирон, Александр Фисенко, Пьер Бурель, Денис Свистун (охранник)
О фильме: Все газеты мира облетает весть, что Давид Ойстрах отыграет концерт на уникальном инструменте в родной Одессе! Из Москвы скрипку перевозят в специальном вагоне поезда. Два легендарных черноморских вора Лаврик и Кобзарь решаются на «ограбление века»: они задумали похитить подарок королевы. Чтобы провернуть задуманное, опытные мастера собирают целую команду из молодых умельцев воровского дела. В это же время на родину после почти двадцати лет отсутствия возвращается красавица и авантюристка, некогда настоящая королева околокриминального мира - Фирочка Танцорка. Операция принимает неожиданный поворот, когда в дело вмешивается любовь.
Качество: HDTV 1080p
Видео: AVC, 1920x1080 (16:9), 7050 kbps, 25 fps, 0,136 bpp
Аудио: AC3 / 2.0 / 48 kHz / 192 kbps /
Продолжительность: 00:46:51
Перевод: Не требуется
Cубтитры: нет

Скриншоты

MediaInfo

General
Unique ID : 254390615117319318305937830115564595870 (0xBF61D9AEBD25B226B5BF6827D1C82A9E)
Complete name : E:Запись с твNeulovimye 2018.HDTV 1080p.RG GeneralFilmNeulovimye.s01.e01.2018.HDTV 1080p.by.White Smoke.R.G.Generalfilm.mkv
Format : Matroska
Format version : Version 4 / Version 2
File size : 2.36 GiB
Duration : 46 min
Overall bit rate mode : Constant
Overall bit rate : 7 199 kb/s
Movie name : Neulovimye.s01.e01.2018.HDTV 1080p.by.White Smoke.R.G.Generalfilm.mkv
Encoded date : UTC 2018-11-08 00:07:49
Writing application : mkvmerge v6.8.0 ('Theme for Great Cities') 64bit built on Mar 2 2014 21:34:26
Writing library : libebml v1.3.0 + libmatroska v1.4.1
Cover : Yes
Attachments : cover.jpg
Video
ID : 1
Format : AVC
Format/Info : Advanced Video Codec
Format profile : High@L4.1
Format settings, CABAC : Yes
Format settings, ReFrames : 3 frames
Format settings, GOP : M=3, N=33
Codec ID : V_MPEG4/ISO/AVC
Duration : 46 min
Bit rate mode : Constant
Bit rate : 7 051 kb/s
Width : 1 920 pixels
Height : 1 080 pixels
Display aspect ratio : 16:9
Frame rate mode : Constant
Frame rate : 25.000 FPS
Standard : PAL
Color space : YUV
Chroma subsampling : 4:2:0
Bit depth : 8 bits
Scan type : Progressive
Bits/(Pixel*Frame) : 0.136
Stream size : 2.25 GiB (95%)
Default : Yes
Forced : No
Color range : Limited
Color primaries : BT.709
Transfer characteristics : BT.709
Matrix coefficients : BT.709
Audio
ID : 2
Format : AC-3
Format/Info : Audio Coding 3
Mode extension : CM (complete main)
Format settings, Endianness : Big
Codec ID : A_AC3
Duration : 46 min
Bit rate mode : Constant
Bit rate : 192 kb/s
Channel(s) : 2 channels
Channel positions : Front: L R
Sampling rate : 48.0 kHz
Frame rate : 31.250 FPS (1536 spf)
Compression mode : Lossy
Stream size : 64.4 MiB (3%)
Default : Yes
Forced : No
Релиз от:
[Profile] [PM]
Display posts:    
Reply to topic

Current time is: 18-Jun 21:03

All times are UTC + 3



You cannot post new topics in this forum
You cannot reply to topics in this forum
You cannot edit your posts in this forum
You cannot delete your posts in this forum
You cannot vote in polls in this forum
You cannot attach files in this forum
You cannot download files in this forum