Гражданская жена [1-2 серии из 2] (2018) WEB-DLRip от Files-x

Ответить на тему
 
Автор Сообщение

Nicodem ®

Пол: Мужской

Стаж: 2 месяца 29 дней

Сообщений: 172

Создавать темы 17-Ноя-2018 20:31

[Цитировать]

Гражданская жена
Год выпуска: 2018
Жанр: Мелодрама
Выпущено: Россия, Кинокомпания "Русское"
Режиссер: Андрей Красавин
В ролях: Пелагея Невзорова, Денис Васильев, Евгений Славский, Артём Крылов, Елена Симонова, Елена Ветрова, Александра Живова, Ася Калинина, Ольга Рептух, Анастасия Бакланова (младшая), Кирилл Ильин, Андрей Семёнов (IV), Валентина Попова (II), Ксения Ильина, Павел Малухин, Сергей Ганночка
О фильме: Жизнь с детства не баловала Аню. Девочка рано потеряла родителей и прошла все тяготы жизни в детдоме. Но, словно оправдывая свою фамилию Неунывалова, она никогда не опускала руки. Казалось, все наконец пошло на лад. После стольких бед судьба свела ее с Павлом. Он был совсем не похож на знакомых парней - настоящий принц из мечты, успешный и красивый мужчина. Анна и Павел были счастливы и готовились к свадьбе. Но на пути влюбленных появляются препятствия - мать Павла всеми силами пытается избавиться от девицы "без роду без племени", а брат, который с детства завидовал Павлу, объявляет паре настоящую войну - и в один момент Аня Неунывалова остается одна, с ребенком под сердцем, без средств к существованию и крыши над головой...

Качество: WEB-DLRip
Видео: XviD, ~ 1995 Кбит/с, 720x400, 25 Кадр/с
Аудио: AC3, 2 ch, 192 Кбит/с
Продолжительность: 2 х 01:30:00
Перевод: Не требуется
Cубтитры: нет

Скриншоты



MediaInfo

Общее
Полное имя : C:\Users\DOM\Downloads\Гражданская жена.2018.WEB-DLRip.by.Nicodem.Files-x\01.Гражданская жена.2018.WEB-DLRip.by.Nicodem.Files-x.avi
Формат : AVI
Формат/Информация : Audio Video Interleave
Размер файла : 1,38 Гбайт
Продолжительность : 1 ч. 29 м.
Общий поток : 2196 Кбит/сек
Программа кодирования : VirtualDubMod 1.5.10.3 | www.virtualdub-fr.org || (build 2550/release)
Библиотека кодирования : VirtualDubMod build 2550/release
Видео
Идентификатор : 0
Формат : MPEG-4 Visual
Профиль формата : Advanced Simple@L5
Параметр BVOP формата : 1
Параметр QPel формата : Нет
Параметр GMC формата : Без точки перехода
Параметр матрицы формата : Выборочная
Идентификатор кодека : XVID
Идентификатор кодека/Подсказка : XviD
Продолжительность : 1 ч. 29 м.
Битрейт : 1995 Кбит/сек
Ширина : 720 пикс.
Высота : 400 пикс.
Соотношение сторон : 16:9
Частота кадров : 25,000 кадр/сек
Цветовое пространство : YUV
Подвыборка цветности : 4:2:0
Битовая глубина : 8 бит
Тип развёртки : Прогрессивная
Метод сжатия : С потерями
Бит/(Пиксели*Кадры) : 0.277
Размер потока : 1,25 Гбайт (91%)
Библиотека кодирования : XviD 73
Аудио
Идентификатор : 1
Формат : AC-3
Формат/Информация : Audio Coding 3
Расширение режима : CM (complete main)
Идентификатор кодека : 2000
Продолжительность : 1 ч. 29 м.
Вид битрейта : Постоянный
Битрейт : 192 Кбит/сек
Каналы : 2 канала
Расположение каналов : Front: L R
Частота : 48,0 КГц
Битовая глубина : 16 бит
Метод сжатия : С потерями
Размер потока : 123 Мбайт (9%)
Выравнивание : Разделение по промежуткам
Продолжительность промежутка : 40 мс. (1,00 видеокадр)
Время предзагрузки промежутка : 500 ms
Релиз от:

Релиз подготовлен R.G.Files-x

[Профиль] [ЛС]
Показать сообщения:    
Ответить на тему

Текущее время: 16-Фев 21:36

Часовой пояс: UTC + 3



Вы не можете начинать темы
Вы не можете отвечать на сообщения
Вы не можете редактировать свои сообщения
Вы не можете удалять свои сообщения
Вы не можете голосовать в опросах
Вы не можете прикреплять файлы к сообщениям
Вы не можете скачивать файлы