Парад Победы. Калининград (2019) WEB-DL 720p от Files-x

Reply to topic
 
Author Message

bond74 ®

Gender: Male

Longevity: 8 months 7 days

Posts: 554

Post 09-May-2019 14:44

[Quote]

Парад Победы. Калининград Год выпуска: 2019
Жанр: Документальный, военный парад
Выпущено: Россия, Калининград, НТВ HD
Режиссер: Павел Игнатов
О фильме: В главном параде страны, посвящённом 74-й годовщине победы в Великой Отечественной войне, принимают участие тысячи военнослужащих и курсантов военных училищ, более 150 единиц военной техники, а в московском небе - авиационная группа из боевых вертолётов и самолётов.
Качество: WEB-DL 720p
Видео: MPEG-4 AVC, 2159 Кбит/с, 1280x720, 25 кадр/с
Аудио: Русский (AC3, 2 ch, 192 Кбит/с)
Продолжительность: 01:47:05
Перевод: Не требуется
Субтитры: нет

Скриншоты

MediaInfo

General
Unique ID : 247291358990402588410583111984254752456 (0xBA0A9554E76FE167898AC28B8D6F16C8)
Complete name : C:\Users\user\Downloads\Video\Калининград. Парад Победы 2019.WEB-DL 720p. Files-x.mkv
Format : Matroska
File size : 1.76 GiB
Duration : 1h 46mn
Overall bit rate : 2 367 Kbps
Encoded date : UTC 2019-05-09 11:33:35
Writing application : mkvmerge v7.8.0 ('River Man') 32bit built on Apr 3 2015 12:11:22
Writing library : libebml v1.3.1 + libmatroska v1.4.2
Video
ID : 1
Format : AVC
Format/Info : Advanced Video Codec
Format profile : Main@L3.1
Format settings, CABAC : Yes
Format settings, ReFrames : 3 frames
Format settings, GOP : M=5, N=53
Codec ID : V_MPEG4/ISO/AVC
Duration : 1h 46mn
Bit rate : 2 128 Kbps
Width : 1 280 pixels
Height : 720 pixels
Display aspect ratio : 16:9
Frame rate mode : Variable
Frame rate : 25.000 fps
Color space : YUV
Chroma subsampling : 4:2:0
Bit depth : 8 bits
Scan type : Progressive
Bits/(Pixel*Frame) : 0.092
Stream size : 1.59 GiB (90%)
Color primaries : BT.709-5, BT.1361, IEC 61966-2-4, SMPTE RP177
Transfer characteristics : BT.709-5, BT.1361
Matrix coefficients : BT.709-5, BT.1361, IEC 61966-2-4 709, SMPTE RP177
Audio
ID : 2
Format : AC-3
Format/Info : Audio Coding 3
Mode extension : CM (complete main)
Codec ID : A_AC3
Duration : 1h 46mn
Bit rate mode : Constant
Bit rate : 192 Kbps
Channel(s) : 2 channels
Channel positions : Front: L R
Sampling rate : 44.1 KHz
Bit depth : 16 bits
Compression mode : Lossy
Delay relative to video : 9ms
Stream size : 146 MiB (8%)
[Profile] [PM]
Display posts:    
Reply to topic

Current time is: 22-Jul 18:11

All times are UTC + 3



You cannot post new topics in this forum
You cannot reply to topics in this forum
You cannot edit your posts in this forum
You cannot delete your posts in this forum
You cannot vote in polls in this forum
You cannot attach files in this forum
You cannot download files in this forum