Мама Лора / Больше жизни [1-10 серии из 16] (2017) WEBRip от GeneralFilm

Reply to topic
 
Author Message

vsobbol ®

Gender: Male

Longevity: 6 months 3 days

Posts: 179

Location: Донецк

Post 14-May-2019 23:43

[Quote]

Мама Лора / Больше жизни
Год выпуска: 2017
Жанр: Детектив, комедия
Выпущено: Россия, Русские золотые серии
Режиссер: Андрей Силкин
В ролях: Елена Панова, Константин Юшкевич, Ольга Тумайкина, Анна Уколова, Андрей Назимов, Андрей Стоянов, Наталья Тищенко, Елизавета Лотова, Сергей Черданцев, Михаил Куряев, Александр Никольский (II), Ирина Туманцева, Кирилл Чернышенко, Иван Моховиков
О фильме: Владелица придорожного кафе возле подмосковной деревни Сабурово Лора – простая женщина, но природная наблюдательность и неравнодушие к чужой беде пробуждают в ней дар детектива. За свою доброту и отзывчивость она получила прозвище Мама Лора: ни дальнобойщики, ни пассажиры, ни местные жители никогда не уйдут от нее голодными, их всегда выслушают и помогут. Однако жизнь самой Лоры не назовешь легкой: ее муж Гоша бесконечно ищет работу, дочь никак не определится с выбором профессии, у сына не ладится личная жизнь, но Мама Лора не унывает и с одинаковой легкостью печет пирожки и раскрывает уголовные преступления.

Качество: WEBRip
Видео: XviD build 73, 720x400 (16:9), 25.000 fps, ~ 1300 Kbps (~ 0.180 bit/pixel)
Аудио: 48.0 kHz, AC3, 2/0 ch, 192 kbps
Продолжительность: 10 x ~ 00:52:00
Перевод / Озвучка: Не требуется [Русский]
Cубтитры: нет

Скриншоты

MediaInfo

General
Complete name : D:\Razdachi\Mama.Lora.2017.WEBRip.GeneralFilm\Mama.Lora.e01.avi
Format : AVI
Format/Info : Audio Video Interleave
File size : 557 MiB
Duration : 51 min 46 s
Overall bit rate : 1 506 kb/s
Writing application : VirtualDubMod 1.5.10.3 | www.virtualdub-fr.org || (build 2550/release)
Writing library : VirtualDubMod build 2550/release
Video
ID : 0
Format : MPEG-4 Visual
Format profile : Advanced Simple@L5
Format settings : BVOP1 / Custom Matrix
Format settings, BVOP : 1
Format settings, QPel : No
Format settings, GMC : No warppoints
Format settings, Matrix : Custom
Codec ID : XVID
Codec ID/Hint : XviD
Duration : 51 min 46 s
Bit rate : 1 304 kb/s
Width : 720 pixels
Height : 400 pixels
Display aspect ratio : 16:9
Frame rate : 25.000 FPS
Color space : YUV
Chroma subsampling : 4:2:0
Bit depth : 8 bits
Scan type : Progressive
Compression mode : Lossy
Bits/(Pixel*Frame) : 0.181
Stream size : 483 MiB (87%)
Writing library : XviD 73
Audio
ID : 1
Format : AC-3
Format/Info : Audio Coding 3
Commercial name : Dolby Digital
Codec ID : 2000
Duration : 51 min 46 s
Bit rate mode : Constant
Bit rate : 192 kb/s
Channel(s) : 2 channels
Channel layout : L R
Sampling rate : 48.0 kHz
Frame rate : 31.250 FPS (1536 SPF)
Bit depth : 16 bits
Compression mode : Lossy
Stream size : 71.1 MiB (13%)
Alignment : Split accross interleaves
Interleave, duration : 40 ms (1.00 video frame)
Interleave, preload duratio : 500 ms
Service kind : Complete Main
Релиз от:


Last edited by vsobbol on Today 14:14; edited 1 time in total
[Profile] [PM]

KRIEVS2011

Gender: Male

Longevity: 3 months 25 days

Posts: 5

Post 16-May-2019 09:06 (after 1 day 9 hours)

[Quote]

Хороший фильм
СПАСИБО !!!
[Profile] [PM]
Display posts:    
Reply to topic

Current time is: 19-May 14:38

All times are UTC + 3



You cannot post new topics in this forum
You cannot reply to topics in this forum
You cannot edit your posts in this forum
You cannot delete your posts in this forum
You cannot vote in polls in this forum
You cannot attach files in this forum
You cannot download files in this forum