Пушистый шпион / Marnies Welt (2018) WEB-DL 1080p | iTunes

Reply to topic
 
Author Message

Monk ®

Gender: Male

Longevity: 7 months 1 day

Posts: 6883

Location: Казань

Post 17-May-2019 08:29

[Quote]

Пушистый шпион / Marnies Welt Год выпуска: 2018
Жанр: Мультфильм, приключения, семейный
Выпущено: Германия, Бельгия, Scopas Medien, Grid Animation, Philm CGI
Режиссер: Кристоф Лауэнштайн, Вольфганг Лауэнштайн
В ролях: Эрик Борнер, Александра Нельдель, Аксель Праль
О фильме: Избалованная рыжая кошечка Марни живет в доме со своей хозяйкой в тепле и уюте и в ус не дует. Но ее жизнь радикально меняется, когда она становится жертвой грабителей-преступников, которые отправляют ее в коробке в другой город. В дороге коробка теряется и Марни оказывается где-то в глухой деревне, один на один с реальной жизнью. Она встречает Пса, Петуха и Осла и тут начинаются приключения... Марни и ее новым друзьям предстоит найти того, кто стоит за загадочными ограблениями в городе и обезвредить эту банду.
Качество: WEB-DL 1080p
Видео: MPEG-4 AVC, 5071 Кбит/с, 1920x1040
Аудио: Русский (AC3, 6 ch, 384 Кбит/с)
Продолжительность: 01:32:03
Перевод: Дублированный [iTunes]

Скриншоты


MediaInfo

Общее
Уникальный идентификатор : 226720986328162022687009844505088736367 (0xAA90DFA81E73ACB7807301896DE9BC6F)
Полное имя : Marnies.Welt.2019.WEB-DL.1080p.ELEKTRI4KA.UNIONGANG.mkv
Формат : Matroska
Версия формата : Version 2
Размер файла : 3,58 Гбайт
Продолжительность : 1 ч. 32 м.
Общий поток : 5566 Кбит/сек
Название фильма : Marnies.Welt.2019.ELEKTRI4KA.UNIONGANG
Дата кодирования : UTC 2019-05-15 20:39:33
Программа кодирования : mkvmerge v7.8.0 ('River Man') 32bit built on Apr 3 2015 12:11:22
Библиотека кодирования : libebml v1.3.1 + libmatroska v1.4.2
Видео
Идентификатор : 2
Формат : AVC
Формат/Информация : Advanced Video Codec
Профиль формата : High@L4
Настройки формата : CABAC / 4 Ref Frames
Параметр CABAC формата : Да
Параметр RefFrames формата : 4 кадра
Идентификатор кодека : V_MPEG4/ISO/AVC
Продолжительность : 1 ч. 32 м.
Битрейт : 5071 Кбит/сек
Ширина : 1920 пикселей
Высота : 1040 пикселей
Соотношение сторон : 1,85:1
Режим частоты кадров : Постоянный
Частота кадров : 24,000 кадра/сек
Цветовое пространство : YUV
Субдискретизация насыщенности : 4:2:0
Битовая глубина : 8 бит
Тип развёртки : Прогрессивная
Бит/(Пиксели*Кадры) : 0.106
Размер потока : 3,26 Гбайт (91%)
Язык : English
Default : Да
Forced : Нет
Цветовой диапазон : Limited
Основные цвета : BT.709
Характеристики трансфера : BT.709
Коэффициенты матрицы : BT.709
Аудио
Идентификатор : 1
Формат : AC-3
Формат/Информация : Audio Coding 3
Коммерческое название : Dolby Digital
Идентификатор кодека : A_AC3
Продолжительность : 1 ч. 32 м.
Вид битрейта : Постоянный
Битрейт : 384 Кбит/сек
Каналы : 6 каналов
Channel layout : L R C LFE Ls Rs
Частота : 48,0 КГц
Частота кадров : 31,250 кадров/сек (1536 SPF)
Битовая глубина : 16 бит
Метод сжатия : С потерями
Размер потока : 253 Мбайт (7%)
Язык : Russian
ServiceKind/String : Complete Main
Default : Да
Forced : Нет
Меню
00:00:00.000 : en:Chapter 1
00:08:29.500 : en:Chapter 2
00:13:45.333 : en:Chapter 3
00:19:43.666 : en:Chapter 4
00:25:15.499 : en:Chapter 5
00:32:12.749 : en:Chapter 6
00:39:01.499 : en:Chapter 7
00:45:14.249 : en:Chapter 8
00:51:36.707 : en:Chapter 9
00:56:59.707 : en:Chapter 10
01:03:46.748 : en:Chapter 11
01:09:14.539 : en:Chapter 12
01:14:57.746 : en:Chapter 13
01:20:38.121 : en:Chapter 14


Last edited by Monk on 2019-05-17 08:29; edited 1 time in total
[Profile] [PM]

Post 17-May-2019 08:29 (after 14 seconds)

Топик был перенесен из форума Зарубежные в форум Зарубежные
Monk
 
Display posts:    
Reply to topic

Current time is: 16-Jun 11:04

All times are UTC + 3



You cannot post new topics in this forum
You cannot reply to topics in this forum
You cannot edit your posts in this forum
You cannot delete your posts in this forum
You cannot vote in polls in this forum
You cannot attach files in this forum
You cannot download files in this forum