Миа и белый лев / Mia et le lion blanc (2018) BDRip 1080p от R.G.Generalfilm DUB [iTunes]

Reply to topic
 
Author Message

White Smoke ®

Gender: Male

Longevity: 9 months 9 days

Posts: 77

Post 11-Jun-2019 19:36

[Quote]

Миа и белый лев / Mia et le lion blanc Год выпуска: 2018
Жанр: драма, приключения, семейный
Выпущено: Франция, Германия, ЮАР, Galatée Films, Outside Films, Film Afrika Worldwide, M6 Films, StudioCanal
Режиссер: Жиль де Мэтр
В ролях: Даниа Де Вилье, Мелани Лоран, Лэнгли Кирквуд, Райан Мак Леннан, Лайонел Ньютон, Лиллиэн Дюбэ, Брэндон Оре, Пол Дэвис, Эшли Харви, Тесса Джуббер
О фильме: Миа вместе с семьей переезжает в Южную Африку из Лондона, где ее родители покупают ферму по разведению львов. Девочку ничего не радует на новом месте, ей хочется вернуться в Лондон, где остались ее друзья и беззаботная подростковая жизнь. Но внезапно на нее сваливается забота о маленьком белом львенке по имени Чарли, который остался без родителей. И вся ее жизнь круто меняется... Они становятся неразлучны, пока однажды Миа не узнает, что ее другу грозит серьезная опасность. Тогда она решает сбежать и найти для Чарли новый дом, где он будет счастлив и свободен.
Качество: BDRip 1080p
Видео: AVC, 1920x800 (2.40:1), 23.976 fps, 8 800 Kbps (0.239 bit/pixel)
Аудио: AC3, 384 Кбит/с, 6 ch, 48.0 KHz
Продолжительность: 01:38:16
Перевод: Дублированный [ iTunes]
Cубтитры : нет

Скриншоты





MediaInfo

General
Unique ID : 191399141041893254120989427240277739081 (0x8FFE223A92C499FD8F20339592798649)
Complete name : E:\Запись с тв\Mia and the White Lion.2018.BDRip-1080p.Rip.by.White Smoke.R.G.Generalfilm.mkv
Format : Matroska
Format version : Version 4 / Version 2
File size : 6.30 GiB
Duration : 1 h 38 min
Overall bit rate : 9 181 kb/s
Movie name : Mia and the White Lion.2018.BDRip-1080p.Rip.by.White Smoke.R.G.Generalfilm.mkv
Encoded date : UTC 2019-06-11 09:39:38
Writing application : mkvmerge v6.8.0 ('Theme for Great Cities') 64bit built on Mar 2 2014 21:34:26
Writing library : libebml v1.3.0 + libmatroska v1.4.1
Cover : Yes
Attachments : cover.jpg
Video
ID : 1
Format : AVC
Format/Info : Advanced Video Codec
Format profile : High@L4.1
Format settings : CABAC / 5 Ref Frames
Format settings, CABAC : Yes
Format settings, ReFrames : 5 frames
Codec ID : V_MPEG4/ISO/AVC
Duration : 1 h 38 min
Bit rate : 8 800 kb/s
Width : 1 920 pixels
Height : 800 pixels
Display aspect ratio : 2.40:1
Frame rate mode : Constant
Frame rate : 23.976 (24000/1001) FPS
Color space : YUV
Chroma subsampling : 4:2:0
Bit depth : 8 bits
Scan type : Progressive
Bits/(Pixel*Frame) : 0.239
Stream size : 5.91 GiB (94%)
Writing library : x264 core 148 r2638 7599210
Encoding settings : cabac=1 / ref=5 / deblock=1:-2:-1 / analyse=0x3:0x113 / me=umh / subme=11 / psy=1 / psy_rd=0.00:0.15 / mixed_ref=1 / me_range=32 / chroma_me=1 / trellis=2 / 8x8dct=1 / cqm=0 / deadzone=21,11 / fast_pskip=0 / chroma_qp_offset=-3 / threads=6 / lookahead_threads=1 / sliced_threads=0 / nr=0 / decimate=0 / interlaced=0 / bluray_compat=0 / constrained_intra=0 / bframes=10 / b_pyramid=2 / b_adapt=2 / b_bias=10 / direct=1 / weightb=0 / open_gop=0 / weightp=2 / keyint=240 / keyint_min=23 / scenecut=40 / intra_refresh=0 / rc=2pass / mbtree=0 / bitrate=8800 / ratetol=1.0 / qcomp=0.65 / qpmin=0 / qpmax=69 / qpstep=4 / cplxblur=20.0 / qblur=0.5 / ip_ratio=1.40 / pb_ratio=1.30 / aq=1:0.75
Language : English
Default : Yes
Forced : No
Color range : Limited
Color primaries : BT.709
Transfer characteristics : BT.709
Matrix coefficients : BT.709
Audio
ID : 2
Format : AC-3
Format/Info : Audio Coding 3
Commercial name : Dolby Digital
Codec ID : A_AC3
Duration : 1 h 38 min
Bit rate mode : Constant
Bit rate : 384 kb/s
Channel(s) : 6 channels
Channel layout : L R C LFE Ls Rs
Sampling rate : 48.0 kHz
Frame rate : 31.250 FPS (1536 SPF)
Bit depth : 16 bits
Compression mode : Lossy
Stream size : 270 MiB (4%)
Title : DUB | iTunes
Language : Russian
Service kind : Complete Main
Default : Yes
Forced : No
Menu
00:00:00.000 : en:Chapter 1
00:08:18.707 : en:Chapter 2
00:17:59.578 : en:Chapter 3
00:25:00.833 : en:Chapter 4
00:34:04.876 : en:Chapter 5
00:41:59.517 : en:Chapter 6
00:52:34.026 : en:Chapter 7
01:02:35.001 : en:Chapter 8
01:11:51.140 : en:Chapter 9
01:20:24.111 : en:Chapter 10
01:29:41.835 : en:Chapter 11
01:35:44.030 : en:Chapter 12
Релиз от:
[Profile] [PM]
Display posts:    
Reply to topic

Current time is: 22-Aug 22:07

All times are UTC + 3



You cannot post new topics in this forum
You cannot reply to topics in this forum
You cannot edit your posts in this forum
You cannot delete your posts in this forum
You cannot vote in polls in this forum
You cannot attach files in this forum
You cannot download files in this forum