В клетке [1-2 серия из 10] (2019) WEBRip 720p от Files-x

Reply to topic
 
Author Message

bond74 ®

Gender: Male

Longevity: 7 months 1 day

Posts: 512

Post 13-Jun-2019 01:39

[Quote]

В клетке Год выпуска: 2019
Жанр: Драма, криминал, спорт
Выпущено: Россия, «Киностудия КИТ» совместно с продюсерским центром «TeamFilm» по заказу телеканала НТВ
Режиссер: Артём Аксененко
В ролях: Павел Прилучный, Владимир Епифанцев, Артур Ваха, Агата Муцениеце, Екатерина Маликова, Наталья Парашкина, Даниил Воробьёв, Лаура Кеосаян, Алексей Ильин
О фильме: В Калининград одновременно возвращаются отец и сын Евдокимовы: Сергей, по прозвищу Волчок вышел после семи лет тюрьмы по 228 статье; его отец, Алексей Евдокимов, сбежал в родной город от проблем в Москве. Сергей, вернувшись домой, не понимает, как жить дальше - он обнаруживает что мать окончательно спилась, а бывшая любовь Ольга его уже и не ждала. Кажется, только младший брат Женя счастлив видеть Волчка. А еще Дилер - бывший одноклассник, который за те несколько лет, что Сергей провел в колонии, поднялся от простого барыги до мафиози средней руки. С момента встречи отца и сына начнётся история о преодолении семейных травм, боли и зависимости. Им предстоит выбирать между долгом и любовью, между жизнью и смертью.

Качество: WEBRip 720p
Видео: MPEG-4 AVC, ~ 4000 Кбит/с, 1280x480, 25 кадр/с
Аудио: AC3, 2 ch, 192 Кбит/с
Продолжительность: 2 х ~ 00:50:00
Перевод: Не требуется
Субтитры: нет

Скриншоты

MediaInfo

General
General
General
Unique ID : 217146143385528664732840054991274756653 (0xA35CD373C8212DFBA515C84F1BA9CA2D)
Complete name : C:\00\6354\В клетке.2019.WEB-DL 720p. Files-x\02. В клетке.2019..WEB-DL 720p. Files-x.mkv
Format : Matroska
File size : 1.43 GiB
Duration : 48mn 57s
Overall bit rate : 4 191 Kbps
Encoded date : UTC 2019-06-13 16:08:54
Writing application : mkvmerge v7.8.0 ('River Man') 32bit built on Apr 3 2015 12:11:22
Writing library : libebml v1.3.1 + libmatroska v1.4.2
Video
ID : 1
Format : AVC
Format/Info : Advanced Video Codec
Format profile : High@L4.1
Format settings, CABAC : Yes
Format settings, ReFrames : 9 frames
Codec ID : V_MPEG4/ISO/AVC
Duration : 48mn 57s
Bit rate : 4 000 Kbps
Width : 1 280 pixels
Height : 480 pixels
Display aspect ratio : 2.667
Frame rate : 23.976 fps
Color space : YUV
Chroma subsampling : 4:2:0
Bit depth : 8 bits
Scan type : Progressive
Bits/(Pixel*Frame) : 0.272
Stream size : 1.34 GiB (93%)
Writing library : x264 core 146 r2538 121396c
Encoding settings : cabac=1 / ref=9 / deblock=1:-2:-1 / analyse=0x3:0x133 / me=umh / subme=9 / psy=1 / psy_rd=1.00:0.15 / mixed_ref=1 / me_range=32 / chroma_me=1 / trellis=2 / 8x8dct=1 / cqm=0 / deadzone=21,11 / fast_pskip=0 / chroma_qp_offset=-3 / threads=18 / lookahead_threads=3 / sliced_threads=0 / nr=0 / decimate=1 / interlaced=0 / bluray_compat=0 / constrained_intra=0 / bframes=9 / b_pyramid=2 / b_adapt=2 / b_bias=0 / direct=1 / weightb=1 / open_gop=0 / weightp=2 / keyint=250 / keyint_min=23 / scenecut=40 / intra_refresh=0 / rc=2pass / mbtree=0 / bitrate=4000 / ratetol=1.0 / qcomp=0.60 / qpmin=0 / qpmax=69 / qpstep=4 / cplxblur=20.0 / qblur=0.5 / ip_ratio=1.40 / pb_ratio=1.30 / aq=2:1.00
Color primaries : BT.709-5, BT.1361, IEC 61966-2-4, SMPTE RP177
Transfer characteristics : BT.709-5, BT.1361
Matrix coefficients : BT.709-5, BT.1361, IEC 61966-2-4 709, SMPTE RP177
Audio
ID : 2
Format : AC-3
Format/Info : Audio Coding 3
Mode extension : CM (complete main)
Codec ID : A_AC3
Duration : 48mn 57s
Bit rate mode : Constant
Bit rate : 192 Kbps
Channel(s) : 2 channels
Channel positions : Front: L R
Sampling rate : 48.0 KHz
Bit depth : 16 bits
Compression mode : Lossy
Stream size : 67.2 MiB (5%)
Релиз от:
[Profile] [PM]
Display posts:    
Reply to topic

Current time is: 16-Jun 11:03

All times are UTC + 3



You cannot post new topics in this forum
You cannot reply to topics in this forum
You cannot edit your posts in this forum
You cannot delete your posts in this forum
You cannot vote in polls in this forum
You cannot attach files in this forum
You cannot download files in this forum