Кибер Иван [1-4 серии из 13] (2023) WEB-DL 1080p

Reply to topic
 
Author Message

MrMittens ®

Gender: Male

Longevity: 10 months 20 days

Posts: 1

Post 28-Aug-2023 21:56

[Quote]

Кибер Иван Год выпуска: 2023
Жанр: Комедия
Выпущено: Россия, Black Box Production, Art Pictures Vision
Режиссер: Владислав Иконников
В ролях: Александр Метёлкин (II), Камиль Ларин, Янина Студилина, Дмитрий Астрахан, Анастасия Акатова, Анжелика Каширина, Сергей Неудачин, Андрей Назимов, Борис Дейков, Олег Кассин, Евгений Казанцев
О фильме: Иван случайно ломает новейшего андроида, созданного по своему подобию. Чтобы помочь отцу-инженеру, Иван вынужден изображать робота в доме регионального министра инноваций Бориса и его жены Риты. Ивану предстоит бороться не только с угрозой раскрытия, но и с чувствами к неприступной дочке чиновника.
Качество: WEB-DL 1080p
Видео: MPEG-4 AVC, ~ 3800 Кбит/с, 1920x1080, 25 кадр/с
Аудио: AC3, 2 ch, 192 Кбит/с
Продолжительность: 13 х ~ 00:25:38
Перевод: Не требуется
Cубтитры: нет

Скриншоты




MediaInfo

Общее
Уникальный идентификатор : 100384668602404784101616521685644635249 (0x4B856248B43DDFB4F3330CCA5DA06C71)
Полное имя : D:\ТОРРЕНТ\Kiber.Ivan.S01.WEB-DL.1080p.MrMittens\Kiber.Ivan.S01.E01.WEB-DL.1080p.MrMittens.mkv
Формат : Matroska
Версия формата : Version 4
Размер файла : 733 Мбайт
Продолжительность : 25 м. 38 с.
Общий поток : 3 998 Кбит/сек
Дата кодирования : UTC 2023-08-28 16:45:15
Программа кодирования : mkvmerge v43.0.0 ('The Quartermaster') 64-bit
Библиотека кодирования : libebml v1.3.10 + libmatroska v1.5.2
Видео
Идентификатор : 1
Формат : AVC
Формат/Информация : Advanced Video Codec
Профиль формата : High@L4.1
Настройки формата : CABAC / 4 Ref Frames
Параметр CABAC формата : Да
Параметр RefFrames формата : 4 кадра
Параметр GOP формата : M=4, N=50
Идентификатор кодека : V_MPEG4/ISO/AVC
Продолжительность : 25 м. 38 с.
Битрейт : 3 804 Кбит/сек
Ширина : 1 920 пикселей
Высота : 1 080 пикселей
Соотношение сторон : 16:9
Режим частоты кадров : Постоянный
Частота кадров : 25,000 кадров/сек
Стандарт вещания : PAL
Цветовое пространство : YUV
Субдискретизация насыщенности : 4:2:0
Битовая глубина : 8 бит
Тип развёртки : Прогрессивная
Бит/(Пиксели*Кадры) : 0.073
Размер потока : 698 Мбайт (95%)
Default : Да
Forced : Нет
Цветовой диапазон : Limited
Основные цвета : BT.709
Характеристики трансфера : BT.709
Коэффициенты матрицы : BT.709
Аудио
Идентификатор : 2
Формат : AC-3
Формат/Информация : Audio Coding 3
Коммерческое название : Dolby Digital
Идентификатор кодека : A_AC3
Продолжительность : 25 м. 38 с.
Вид битрейта : Постоянный
Битрейт : 192 Кбит/сек
Каналы : 2 канала
Channel layout : L R
Частота : 48,0 КГц
Частота кадров : 31,250 кадров/сек (1536 SPF)
Метод сжатия : С потерями
Размер потока : 35,2 Мбайт (5%)
Язык : Russian
Service kind : Complete Main
Default : Да
Forced : Нет

Внимание! Раздача ведётся путём добавления новых серий

Раздача ведётся путём добавления новых серий, при каждом добавлении создаётся новый торрент. Чтобы начать докачку новой серии, пользователям необходимо сделать следующее:
- Остановить скачивание.
- Удалить старый торрент у себя из клиента (старые серии удалять не надо).
- Скачать новый торрент и запустить его у себя в клиенте вместо старого, при этом указать клиенту путь в старую папку куда и должно происходить скачивание новых серий.
Ваш клиент при этом должен произвести хеширование (проверку) старой папки (если не производит сам - помогите ему сделать это), и будет докачивать только те серии которых у вас ещё нет. Старые серии при этом не удаляются, а продолжают раздаваться!
Релиз от: MrMittens
[Profile] [PM]
Display posts:    
Reply to topic

Current time is: 18-Jul 11:53

All times are UTC + 3



You cannot post new topics in this forum
You cannot reply to topics in this forum
You cannot edit your posts in this forum
You cannot delete your posts in this forum
You cannot vote in polls in this forum
You cannot attach files in this forum
You cannot download files in this forum