Бездна. Покорение морского дна / Abysses - La conquête des fonds marins [1-2 серии из 2] (2021) SATRip-AVC

Reply to topic
 
Author Message

sebhort ®

Gender: Male

Longevity: 2 years 3 months

Posts: 4472

Post 04-Oct-2023 15:26

[Quote]

Бездна. Покорение морского дна / Abysses - La conquête des fonds marins Год выпуска: 2021
Жанр: Документальный
Выпущено: Франция
Режиссер: Мишель Вьот
О фильме: Исследование морских глубин. Пришло время узнать больше об исследовании океанов. Научные эксперты совместно со специалистами в области CGI помогут расшифровать ключевые научные данные и покажут чудеса техники, которые позволили нам погружаться всё глубже и глубже. А уникальный доступ к неопубликованным кадрам и редчайшим коллекциям подводных лодок со всего мира позволит получить всестороннее представление об этом невероятном человеческом приключении. Кроме того, новейшие технологии подводной съёмки позволят вам увидеть невероятное морское дно и его странных обитателей...
Качество: SATRip-AVC
Видео: H.264, 1800 кбит/с, 720х400, 25 кадр/с
Аудио: Русский, AC3, 2 ch, 160 кбит/с
Продолжительность: 2 х ~ 00:47:26
Перевод: Профессиональный [двухголосый]
Cубтитры: нет

Содержание

01. Человек под водой / Des hommes sous la mer
Во второй половине XIX века родилось грандиозное человеческое и технологическое приключение: океанография. На борту больших океанских кораблей организуются научные экспедиции по всему земному шару.
02. Подводные машины / Des machines sous la mer
Путешествие под водой на подходящем транспортном средстве — это мечта, которая сбылась в 1775 году с «Черепахой», первым в мире боевым подводным кораблем, использовавшимся во время американской войны за независимость.

Скриншоты

MediaInfo

Общее
Уникальный идентификатор : 220104384765308049118310228314756351114 (0xA5969003585ECDF88F48F1C7F50A048A)
Полное имя : E:\Сериалы\Бездна_Покорение морского дна\01. Человек под водой.mkv
Формат : Matroska
Версия формата : Version 2
Размер файла : 666 Мбайт
Продолжительность : 47 м. 26 с.
Общий поток : 1 961 Кбит/сек
Частота кадров : 25,000 кадров/сек
Дата кодирования : 2023-09-30 05:12:03 UTC
Программа кодирования : mkvmerge v6.9.1 ('Blue Panther') 32bit built on Apr 18 2014 18:15:44
Библиотека кодирования : libebml v1.3.0 + libmatroska v1.4.1
Видео
Идентификатор : 1
Формат : AVC
Формат/Информация : Advanced Video Codec
Профиль формата : High@L4.1
Настройки формата : CABAC / 9 Ref Frames
Параметр CABAC формата : Да
Параметр RefFrames формата : 9 кадров
Идентификатор кодека : V_MPEG4/ISO/AVC
Продолжительность : 47 м. 26 с.
Битрейт : 1 800 Кбит/сек
Ширина : 720 пикселей
Высота : 400 пикселей
Соотношение сторон : 16:9
Режим частоты кадров : Постоянный
Частота кадров : 25,000 кадров/сек
Цветовое пространство : YUV
Субдискретизация насыщенности : 4:2:0
Битовая глубина : 8 бит
Тип развёртки : Прогрессивная
Бит/(Пиксели*Кадры) : 0.250
Размер потока : 598 Мбайт (90%)
Библиотека кодирования : x264 core 164 r3107 a8b68eb
Настройки программы : cabac=1 / ref=9 / deblock=1:-3:-3 / analyse=0x3:0x113 / me=umh / subme=10 / psy=1 / psy_rd=1.00:0.15 / mixed_ref=1 / me_range=32 / chroma_me=1 / trellis=2 / 8x8dct=1 / cqm=0 / deadzone=21,11 / fast_pskip=1 / chroma_qp_offset=-3 / threads=16 / lookahead_threads=2 / sliced_threads=0 / nr=0 / decimate=1 / interlaced=0 / bluray_compat=0 / constrained_intra=0 / bframes=10 / b_pyramid=2 / b_adapt=2 / b_bias=0 / direct=1 / weightb=1 / open_gop=0 / weightp=2 / keyint=250 / keyint_min=25 / scenecut=40 / intra_refresh=0 / rc_lookahead=60 / rc=2pass / mbtree=1 / bitrate=1800 / ratetol=1.0 / qcomp=0.60 / qpmin=0 / qpmax=69 / qpstep=4 / cplxblur=20.0 / qblur=0.5 / vbv_maxrate=14000 / vbv_bufsize=14000 / nal_hrd=none / filler=0 / ip_ratio=1.40 / aq=1:1.00
Default : Да
Forced : Нет
Аудио
Идентификатор : 2
Формат : AC-3
Формат/Информация : Audio Coding 3
Коммерческое название : Dolby Digital
Идентификатор кодека : A_AC3
Продолжительность : 47 м. 26 с.
Вид битрейта : Постоянный
Битрейт : 160 Кбит/сек
Каналы : 2 канала
Channel layout : L R
Частота : 48,0 КГц
Частота кадров : 31,250 кадров/сек (1536 SPF)
Метод сжатия : С потерями
Размер потока : 54,3 Мбайт (8%)
Service kind : Complete Main
Default : Да
Forced : Нет
[Profile] [PM]
Display posts:    
Reply to topic

Current time is: 04-Mar 05:44

All times are UTC + 3



You cannot post new topics in this forum
You cannot reply to topics in this forum
You cannot edit your posts in this forum
You cannot delete your posts in this forum
You cannot vote in polls in this forum
You cannot attach files in this forum
You cannot download files in this forum