Футбол, Чемпионат России РПЛ 2023-2024, 7-й тур, ЦСКА ‒ Зенит [03.09.2023] (2023) HDTV 1080i

Reply to topic
 
Author Message

sebhort ®

Gender: Male

Longevity: 2 years 8 months

Posts: 4472

Post 30-Oct-2023 13:06

[Quote]

Футбол, Чемпионат России РПЛ 2023-2024, 7-й тур, ЦСКА ‒ Зенит Вид спорта: Футбол
Дата/Год соревнования: 2023.09.03
Описание: 3 сентября 2023, воскресенье. 17:30 МСК. 7-й тур.
Стадион: ВЭБ Арена (Арена ЦСКА) (Москва, Россия)
Главный судья: Павел Кукуян (Сочи, Россия)
Матч Премьер
Участники / Составы: ЦСКА (Москва), Зенит (Санкт-Петербург)

Счёт/Итог

1-1
Качество: HDTV 1080i
Видео: MPEG4-AVC, 1920x1080i, 25fps, 11,4 Мбит/сек
Аудио 1: MPEG 2, 48000 Hz, 2 ch, 192 Кбит/сек
Аудио 2: AC3, 48000 Hz, 6 ch, 448 Кбит/сек
Продолжительность: 02:14:15
Язык комментариев: русские

Скриншоты


MediaInfo

Общее
Идентификатор : 1 (0x1)
Полное имя : L:\Разное\Чемпионат России 2023-2024 7-й тур ЦСКА — Зенит.ts
Формат : MPEG-TS
Размер файла : 11,9 Гбайт
Продолжительность : 2 ч. 14 м.
Режим общего битрейта : Переменный
Общий поток : 12,7 Мбит/сек
Частота кадров : 25,000 кадров/сек
Видео
Идентификатор : 203 (0xCB)
Идентификатор меню : 1403 (0x57B)
Формат : AVC
Формат/Информация : Advanced Video Codec
Профиль формата : High@L4
Настройки формата : CABAC / 4 Ref Frames
Параметр CABAC формата : Да
Параметр RefFrames формата : 4 кадра
Параметр GOP формата : M=4, N=28
Идентификатор кодека : 27
Продолжительность : 2 ч. 14 м.
Битрейт : 11,4 Мбит/сек
Ширина : 1 920 пикселей
Высота : 1 080 пикселей
Соотношение сторон : 16:9
Описание активного формата : Letterbox 16:9 image
Частота кадров : 25,000 кадров/сек
Стандарт вещания : Component
Цветовое пространство : YUV
Субдискретизация насыщенности : 4:2:0
Битовая глубина : 8 бит
Тип развёртки : Чересстрочная
Метод сохранения типа развёртки : Раздельные поля
Порядок развёртки : Верхнее поле первое
Бит/(Пиксели*Кадры) : 0.220
Размер потока : 10,7 Гбайт (90%)
Цветовой диапазон : Limited
Основные цвета : BT.709
Характеристики трансфера : BT.709
Коэффициенты матрицы : BT.709
Аудио #1
Идентификатор : 303 (0x12F)
Идентификатор меню : 1403 (0x57B)
Формат : MPEG Audio
Версия формата : Version 1
Профиль формата : Layer 2
Идентификатор кодека : 3
Продолжительность : 2 ч. 14 м.
Вид битрейта : Постоянный
Битрейт : 192 Кбит/сек
Каналы : 2 канала
Частота : 48,0 КГц
Частота кадров : 41,667 кадра/сек (1152 SPF)
Метод сжатия : С потерями
Размер потока : 184 Мбайт (2%)
Язык : Russian
Аудио #2
Идентификатор : 403 (0x193)
Идентификатор меню : 1403 (0x57B)
Формат : AC-3
Формат/Информация : Audio Coding 3
Коммерческое название : Dolby Digital
Идентификатор кодека : 6
Продолжительность : 2 ч. 14 м.
Вид битрейта : Постоянный
Битрейт : 448 Кбит/сек
Каналы : 6 каналов
Channel layout : L R C LFE Ls Rs
Частота : 48,0 КГц
Частота кадров : 31,250 кадров/сек (1536 SPF)
Метод сжатия : С потерями
Размер потока : 430 Мбайт (4%)
Язык : English
Service kind : Complete Main
[Profile] [PM]
Display posts:    
Reply to topic

Current time is: 20-Jul 15:04

All times are UTC + 3



You cannot post new topics in this forum
You cannot reply to topics in this forum
You cannot edit your posts in this forum
You cannot delete your posts in this forum
You cannot vote in polls in this forum
You cannot attach files in this forum
You cannot download files in this forum