Новые Звёзды в Африке [5 сезон: 10 выпуск из 15] (2023) SATRip от A®GO

Reply to topic
 
Author Message

Argo ®

Gender: Male

Longevity: 6 months 22 days

Posts: 27

Post 12-Nov-2023 16:00

[Quote]

Новые Звёзды в Африке Год выпуска: 2023
Жанр: ТВ-шоу, реалити-шоу
Выпущено: Россия, ТНТ
Режиссер: Ольга Бузова, Михаил Галустян
В ролях: Михаил Стогниенко, Влад Топалов, Оскар Кучера, Евгения Искандарова, Виолетта Чиковани, Вик Уайлд, Елена Борщева, Евгений Ершов, Вита Чиковани, Александр Пташенчук, Юлия Топольницкая
О фильме: Первыми в звёздный лагерь заселятся комики Михаил Стогниенко, Женя Искандарова и Елена Борщева, блогеры Женя Ершов и Вита Чиковани, певец Влад Топалов, актёры Александр Пташенчук, Юлия Топольницкая и Оскар Кучера, а также спортсмен и олимпийский чемпион Вик Уайлд. Каждую неделю на голосовании участники проекта решают, кто должен покинуть борьбу за главный приз и уехать из Африки. Судьбу номинанта решает испытание на вылет. Задача звёзд – дойти до финала, обыграв соперников не только в физических, но и психологических испытаниях.
Качество: SATRip
Видео: XviD, 1700 Кбит/с, 720x400, 25 кадр/с
Аудио: MP3, 2 ch, 192 Кбит/с
Продолжительность: 01:52:06
Перевод: Не требуется [Русский]
Cубтитры: нет

Скриншоты


MediaInfo

MediaInfoLib - v0.7.58
General
Complete name : D:\Диск\Новые Звёзды в Африке_5.сезон_10.выпуск_SATRip_A®GO.avi
Format : AVI
Format/Info : Audio Video Interleave
File size : 1.49 GiB
Duration : 1h 52mn
Overall bit rate : 1 902 Kbps
Writing application : VirtualDubMod 1.5.10.3 | www.virtualdub-fr.org || (build 2550/release)
Writing library : VirtualDubMod build 2550/release
Video
ID : 0
Format : MPEG-4 Visual
Format profile : Advanced Simple@L5
Format settings, BVOP : 1
Format settings, QPel : No
Format settings, GMC : No warppoints
Format settings, Matrix : Default (MPEG)
Codec ID : XVID
Codec ID/Hint : XviD
Duration : 1h 52mn
Bit rate : 1 700 Kbps
Width : 720 pixels
Height : 400 pixels
Display aspect ratio : 16:9
Frame rate : 25.000 fps
Color space : YUV
Chroma subsampling : 4:2:0
Bit depth : 8 bits
Scan type : Progressive
Compression mode : Lossy
Bits/(Pixel*Frame) : 0.236
Stream size : 1.33 GiB (89%)
Writing library : XviD 1.2.1 (UTC 2008-12-04)
Audio
ID : 1
Format : MPEG Audio
Format version : Version 1
Format profile : Layer 3
Codec ID : 55
Codec ID/Hint : MP3
Duration : 1h 52mn
Bit rate mode : Constant
Bit rate : 192 Kbps
Channel(s) : 2 channels
Sampling rate : 48.0 KHz
Compression mode : Lossy
Stream size : 154 MiB (10%)
Alignment : Aligned on interleaves
Interleave, duration : 40 ms (1.00 video frame)
Interleave, preload duration : 504 ms
Writing library : LAME3.99r
Encoding settings : -m s -V 4 -q 2 -lowpass 18.6 -b 192
Релиз от: A®GO
[Profile] [PM]
Display posts:    
Reply to topic

Current time is: 04-Mar 04:37

All times are UTC + 3



You cannot post new topics in this forum
You cannot reply to topics in this forum
You cannot edit your posts in this forum
You cannot delete your posts in this forum
You cannot vote in polls in this forum
You cannot attach files in this forum
You cannot download files in this forum