Суворов. Великое путешествие (2022) WEB-DLRip от Files-x

Reply to topic
 
Author Message

Серый1779 ®

Gender: Male

Longevity: 5 years 8 months

Posts: 3620

Location: Украина

Post 26-Dec-2023 23:21

[Quote]

Суворов. Великое путешествие Год выпуска: 2022
Жанр: Мультфильм, приключения, история, полнометражный
Выпущено: Россия, Киностудия им. М. Горького, "КиноАтис", "Союзмультфильм"
Режиссер: Борис Чертков
В ролях: Константин Хабенский, Антон Макарский, Филипп Киркоров, Анна Ардова, Алексей Демидов, Юлия Рутберг, Наталия Быстрова
Описание: Простому юноше Грише предстоит разлучиться с любимой Соней и отправиться в великое путешествие: он попадет на службу к непобедимому полководцу Александру Васильевичу Суворову. Гриша станет участником захватывающих приключений и судьбоносных событий во время легендарного Швейцарского похода. Поверив в себя, Гриша бросит вызов опасному злодею, не раз проявит смекалку и найдет новых верных друзей. Его хоть и маленький, но самый настоящий подвиг выручит Суворова и докажет — героем может стать каждый, если им движет любовь.

Качество: WEB-DLRip
Видео: XviD, ~ 2187 Кбит/с, 720x384, 25 кадр/с
Аудио: AC3, 2 ch, 192 Кбит/с
Продолжительность: 01:22:17
Перевод: Не требуется
Субтитры: Нет

Скриншоты

MediaInfo

General
Complete name: F:\fiiles x\Suvorov.Velikoe.puteshestvie.2022.WEB-DLRip.Files-x.avi
Format: AVI
Format/Info: Audio Video Interleave
File size: 1.37 GiB
Duration: 1 h 22 min
Overall bit rate: 2 389 kb/s
Writing application: VirtualDubMod 1.5.10.3 | https://www.virtualdub-fr.org || (build 2550/release)
Writing library: VirtualDubMod build 2550/release
Video
ID: 0
Format: MPEG-4 Visual
Format profile: Advanced Simple@L5
Format settings: BVOP1 / Custom Matrix
Format settings, BVOP: 1
Format settings, QPel: No
Format settings, GMC: No warppoints
Format settings, Matrix: Custom
Codec ID: XVID
Codec ID/Hint: XviD
Duration: 1 h 22 min
Bit rate: 2 187 kb/s
Width: 720 pixels
Height: 384 pixels
Display aspect ratio: 1.85:1
Frame rate: 25.000 FPS
Color space: YUV
Chroma subsampling: 4:2:0
Bit depth: 8 bits
Scan type: Progressive
Compression mode: Lossy
Bits/(Pixel*Frame): 0.316
Stream size: 1.26 GiB (92%)
Writing library: XviD 73
Audio
ID: 1
Format: AC-3
Format/Info: Audio Coding 3
Commercial name: Dolby Digital
Codec ID: 2000
Duration: 1 h 22 min
Bit rate mode: Constant
Bit rate: 192 kb/s
Channel(s): 2 channels
Channel layout: L R
Sampling rate: 48.0 kHz
Frame rate: 31.250 FPS (1536 SPF)
Compression mode: Lossy
Stream size: 113 MiB (8%)
Alignment: Split across interleaves
Interleave, duration: 40 ms (1.00 video frame)
Interleave, preload duratio: 500 ms
Service kind: Complete Main
Релиз от:

Release was prepared by RG Files-x

[Profile] [PM]
Display posts:    
Reply to topic

Current time is: 20-Jul 15:49

All times are UTC + 3



You cannot post new topics in this forum
You cannot reply to topics in this forum
You cannot edit your posts in this forum
You cannot delete your posts in this forum
You cannot vote in polls in this forum
You cannot attach files in this forum
You cannot download files in this forum