Кошмар перед рождеством / The Nightmare Before Christmas (1993) BDRip 1080p | Лицензия

Reply to topic
 
Author Message

HardwareMining ®

Gender: Male

Longevity: 4 years 4 months

Posts: 589

Post 01-Feb-2024 13:57

[Quote]

Кошмар перед рождеством / The Nightmare Before Christmas
«A ghoulish tale with wicked humour & stunning animation» Год выпуска: 1993
Жанр: мультфильм, мюзикл, фэнтези, семейный
Выпущено: США | Skellington Productions Inc., Tim Burton Productions, Touchstone Pictures, Walt Disney Pictures
Режиссер: Генри Селик
В ролях: Дэнни Элфмен, Крис Сарандон, Кэтрин О’Хара, Уильям Хикки, Гленн Шэдикс, Пол Рубенс, Кен Пейдж, Эд Айвори, Сьюзэн МакБрайд, Деби Дерст, Грег Прупс, Керри Кац, Рэнди Креншоу, Шервуд Болл, Кармэн Твилли, Гленн Уолтерс, Миа Браун, Л. Питер Кэллэндер, Энн Фрайзер, Дженнифер Леви, Джесси МакКлерг, Джон Моррис, Роберт Олаге, Бобби Пейдж, Элена Праскин, Трампас Варман, Джуди М. Дюран, Дорис Хесс, Даамен Дж. Кралл, Кристина МакГрегор, Дэвид МакЧарен, Гари Рафф, Дэвид Рэндольф, Гэри Шварц
О фильме:
В царстве Хэллоуин, царстве страхов и кошмаров, живут мертвецы, уродцы, чудовища во главе с царем ужасов Джеком Скеллингтоном. Под рождество Джек случайно попадает в город Рождества, где узнает, что где-то есть радость, добро и веселье. Ему страшно захотелось испытать это чувство — дарить людям счастье — и он похитил Санта Клауса и занял его место.

Качество: BDRip 1080p
Видео: AVC, 1800x1080 (5:3), 23,976 fps, 8213 Kbit/s (0.176 bit/pixel)
Аудио:#1 русский, AC3, 5.1, 48 kHz, 384 kbps CBR
Аудио:#2 английский, AC3, 5.1, 48 kHz, 640 kbps CBR
Продолжительность: 01:16:39
Перевод: Дублированный | Лицензия
Субтитры: Отсутствуют

Скриншоты

MediaInfo

General
Unique ID : 215759947384590057321468436006998710420 (0xA251DAB677CA399AB2DD420A492D1894)
Complete name : E:\GF\The.Nightmare.Before.Christmas.1993.BDRip.1080p.Rip.by.HardwareMining.R.G.Generalfilm.mkv
Format : Matroska
Format version : Version 2
File size : 4.95 GiB
Duration : 1 h 16 min
Overall bit rate : 9 236 kb/s
Frame rate : 23.976 FPS
Movie name : The.Nightmare.Before.Christmas.1993.BDRip.1080p.Rip.by.HardwareMining.R.G.Generalfilm
Encoded date : 2024-02-01 10:49:41 UTC
Writing application : mkvmerge v5.0.1 ('Es ist Sommer') built on Oct 9 2011 11:55:43
Writing library : libebml v1.2.2 + libmatroska v1.3.0
Cover : Yes
Attachments : cover.png
Video
ID : 1
Format : AVC
Format/Info : Advanced Video Codec
Format profile : High@L4.1
Format settings : CABAC / 4 Ref Frames
Format settings, CABAC : Yes
Format settings, Reference frames : 4 frames
Muxing mode : Header stripping
Codec ID : V_MPEG4/ISO/AVC
Duration : 1 h 16 min
Bit rate : 8 213 kb/s
Width : 1 800 pixels
Height : 1 080 pixels
Display aspect ratio : 5:3
Frame rate mode : Constant
Frame rate : 23.976 (24000/1001) FPS
Color space : YUV
Chroma subsampling : 4:2:0
Bit depth : 8 bits
Scan type : Progressive
Bits/(Pixel*Frame) : 0.176
Stream size : 4.30 GiB (87%)
Writing library : x264 core 148 r2638 7599210
Encoding settings : cabac=1 / ref=4 / deblock=1:-2:-1 / analyse=0x3:0x113 / me=umh / subme=10 / psy=1 / psy_rd=0.00:0.15 / mixed_ref=1 / me_range=32 / chroma_me=1 / trellis=2 / 8x8dct=1 / cqm=0 / deadzone=21,11 / fast_pskip=0 / chroma_qp_offset=-3 / threads=34 / lookahead_threads=3 / sliced_threads=0 / nr=0 / decimate=0 / interlaced=0 / bluray_compat=0 / constrained_intra=0 / bframes=4 / b_pyramid=2 / b_adapt=2 / b_bias=0 / direct=1 / weightb=1 / open_gop=0 / weightp=2 / keyint=240 / keyint_min=23 / scenecut=40 / intra_refresh=0 / rc_lookahead=40 / rc=2pass / mbtree=0 / bitrate=8213 / ratetol=1.0 / qcomp=0.65 / qpmin=0 / qpmax=69 / qpstep=4 / cplxblur=20.0 / qblur=0.5 / vbv_maxrate=50000 / vbv_bufsize=65500 / nal_hrd=none / filler=0 / ip_ratio=1.40 / pb_ratio=1.30 / aq=1:2.00
Language : English
Default : Yes
Forced : No
Audio #1
ID : 2
Format : AC-3
Format/Info : Audio Coding 3
Commercial name : Dolby Digital
Muxing mode : Header stripping
Codec ID : A_AC3
Duration : 1 h 16 min
Bit rate mode : Constant
Bit rate : 384 kb/s
Channel(s) : 6 channels
Channel layout : L R C LFE Ls Rs
Sampling rate : 48.0 kHz
Frame rate : 31.250 FPS (1536 SPF)
Compression mode : Lossy
Stream size : 211 MiB (4%)
Title : Dub | Лицензия
Language : Russian
Service kind : Complete Main
Default : Yes
Forced : No
Audio #2
ID : 3
Format : AC-3
Format/Info : Audio Coding 3
Commercial name : Dolby Digital
Muxing mode : Header stripping
Codec ID : A_AC3
Duration : 1 h 16 min
Bit rate mode : Constant
Bit rate : 640 kb/s
Channel(s) : 6 channels
Channel layout : L R C LFE Ls Rs
Sampling rate : 48.0 kHz
Frame rate : 31.250 FPS (1536 SPF)
Compression mode : Lossy
Stream size : 351 MiB (7%)
Language : English
Service kind : Complete Main
Default : No
Forced : No
Menu
00:00:00.000 : en:Opening Credits ("Twas a Long Time Ago...")
00:01:19.496 : en:"This Is Halloween"
00:06:22.299 : en:"Jack's Lament"
00:14:09.932 : en:"What's This?"
00:20:53.210 : en:"The Town Meeting Song"
00:26:16.325 : en:Experiments
00:30:44.342 : en:"Jack's Obsession"
00:35:35.050 : en:"The Scheming Song"
00:38:45.532 : en:Sally's Forewarning
00:41:21.479 : en:"Making Christmas"
00:45:43.157 : en:Sandy Claws in Person
00:48:35.329 : en:"Oogie Boogie's Song"
00:51:09.942 : en:Zero Lights the Way
00:53:28.747 : en:"Sally's Song"
00:55:13.227 : en:Christmas Eve Montage
01:00:14.152 : en:Shout Out of the Sky
01:02:02.928 : en:"Poor Jack"
01:05:05.443 : en:To the Rescue!
01:09:16.611 : en:"Finale / Reprise"
01:11:52.642 : en:End Credits
Релиз от:
[Profile] [PM]
Display posts:    
Reply to topic

Current time is: 04-Mar 03:47

All times are UTC + 3



You cannot post new topics in this forum
You cannot reply to topics in this forum
You cannot edit your posts in this forum
You cannot delete your posts in this forum
You cannot vote in polls in this forum
You cannot attach files in this forum
You cannot download files in this forum