Элементарно / Elemental (2023) BDRip 1080p | MovieDalen | Red Head Sound

Reply to topic
 
Author Message

HardwareMining ®

Gender: Male

Longevity: 4 years 6 months

Posts: 603

Post 24-Mar-2024 11:06

[Quote]

Элементарно / Elemental
«Opposites react» Год выпуска: 2023
Жанр: мультфильм, фэнтези, драма, мелодрама, комедия, приключения, семейный
Выпущено: США | Pixar Animation Studios, Walt Disney Pictures
Режиссер: Питер Сон
В ролях: Леа Льюис, Мамуду Ати, Роналдо Дель Кармен, Шила Омми, Венди Маклендон-Кови, Кэтрин О’Хара, Мэйсон Вартхаймер, Ронобир Лахири, Уильма Бонет, Джо Пера
О фильме:
В Элемент-Сити обитатели огня, воды, земли и воздуха живут вместе. У сильной и вспыльчивой Эмбер завязывается дружба с расслабленным, плывущим по течению Уэйдом — дружба, которая бросит вызов её представлениям о мире вокруг.

Качество: BDRip 1080p
Видео: AVC, 1920x1032 (1.85:1), 23,976 fps, 17.9 Mb/s (0.377 bit/pixel)
Аудио:#1 русский, AC3, 2.1, 48 kHz, 192 kbps CBR
Аудио:#2 русский, AC3, 5.1, 48 kHz, 640 kbps CBR
Аудио:#3 английский, AC3, 5.1, 48 kHz, 640 kbps CBR
Продолжительность: 01:41:28
Перевод: Дублированный | MovieDalen
Субтитры: Русcкие | Forced

Скриншоты

MediaInfo

General
Unique ID : 172235060050256722697318192769967466659 (0x819344161CD6DC869943272F5E8628A3)
Complete name : E:\GF\Elemental.2023.BDRip.1080p.Rip.by.HardwareMining.R.G.Generalfilm.mkv
Format : Matroska
Format version : Version 4
File size : 13.7 GiB
Duration : 1 h 41 min
Overall bit rate : 19.4 Mb/s
Frame rate : 23.976 FPS
Movie name : Elemental.2023.BDRip.1080p.Rip.by.HardwareMining.R.G.Generalfilm
Encoded date : 2024-03-24 05:29:12 UTC
Writing application : mkvmerge v6.8.0 ('Theme for Great Cities') 32bit built on Mar 2 2014 21:27:07
Writing library : libebml v1.3.0 + libmatroska v1.4.1
Cover : Yes
Attachments : cover.png
Video
ID : 1
Format : AVC
Format/Info : Advanced Video Codec
Format profile : High@L4.1
Format settings : CABAC / 4 Ref Frames
Format settings, CABAC : Yes
Format settings, Reference frames : 4 frames
Codec ID : V_MPEG4/ISO/AVC
Duration : 1 h 41 min
Bit rate : 17.9 Mb/s
Width : 1 920 pixels
Height : 1 032 pixels
Display aspect ratio : 1.85:1
Frame rate mode : Constant
Frame rate : 23.976 FPS
Color space : YUV
Chroma subsampling : 4:2:0
Bit depth : 8 bits
Scan type : Progressive
Bits/(Pixel*Frame) : 0.377
Stream size : 12.4 GiB (90%)
Writing library : x264 core 130 r2273 b3065e6
Encoding settings : cabac=1 / ref=4 / deblock=1:-2:-1 / analyse=0x3:0x133 / me=umh / subme=10 / psy=1 / psy_rd=1.00:0.08 / mixed_ref=1 / me_range=32 / chroma_me=1 / trellis=2 / 8x8dct=1 / cqm=0 / deadzone=21,11 / fast_pskip=0 / chroma_qp_offset=-3 / threads=48 / lookahead_threads=8 / sliced_threads=0 / nr=0 / decimate=1 / interlaced=0 / bluray_compat=0 / constrained_intra=0 / bframes=11 / b_pyramid=2 / b_adapt=2 / b_bias=0 / direct=3 / weightb=1 / open_gop=0 / weightp=2 / keyint=250 / keyint_min=25 / scenecut=40 / intra_refresh=0 / rc=2pass / mbtree=0 / bitrate=17900 / ratetol=1.0 / qcomp=0.60 / qpmin=0 / qpmax=69 / qpstep=4 / cplxblur=20.0 / qblur=0.5 / ip_ratio=1.40 / pb_ratio=1.30 / aq=2:1.00
Language : English
Default : Yes
Forced : No
Color range : Limited
Color primaries : BT.709
Transfer characteristics : BT.709
Matrix coefficients : BT.709
Audio #1
ID : 2
Format : AC-3
Format/Info : Audio Coding 3
Commercial name : Dolby Digital
Codec ID : A_AC3
Duration : 1 h 41 min
Bit rate mode : Constant
Bit rate : 192 kb/s
Channel(s) : 2 channels
Channel layout : L R
Sampling rate : 48.0 kHz
Frame rate : 31.250 FPS (1536 SPF)
Compression mode : Lossy
Stream size : 139 MiB (1%)
Title : Dub | MovieDalen
Language : Russian
Service kind : Complete Main
Default : Yes
Forced : No
Audio #2
ID : 3
Format : AC-3
Format/Info : Audio Coding 3
Commercial name : Dolby Digital
Codec ID : A_AC3
Duration : 1 h 41 min
Bit rate mode : Constant
Bit rate : 640 kb/s
Channel(s) : 6 channels
Channel layout : L R C LFE Ls Rs
Sampling rate : 48.0 kHz
Frame rate : 31.250 FPS (1536 SPF)
Compression mode : Lossy
Stream size : 464 MiB (3%)
Title : Dub | Red Head Sound
Language : Russian
Service kind : Complete Main
Default : No
Forced : No
Audio #3
ID : 5
Format : AC-3
Format/Info : Audio Coding 3
Commercial name : Dolby Digital
Codec ID : A_AC3
Duration : 1 h 41 min
Bit rate mode : Constant
Bit rate : 640 kb/s
Channel(s) : 6 channels
Channel layout : L R C LFE Ls Rs
Sampling rate : 48.0 kHz
Frame rate : 31.250 FPS (1536 SPF)
Compression mode : Lossy
Stream size : 464 MiB (3%)
Title : Original
Language : English
Service kind : Complete Main
Default : No
Forced : No
Text
ID : 4
Format : UTF-8
Codec ID : S_TEXT/UTF8
Codec ID/Info : UTF-8 Plain Text
Title : Forced
Language : Russian
Default : Yes
Forced : No
Menu
00:00:00.000 : mul:Parent's story
00:08:16.662 : mul:Fireplace
00:11:11.170 : mul:Delivery
00:14:24.572 : mul:Ember's fault
00:18:14.384 : mul:Stop wade
00:21:24.741 : mul:Fern burned
00:22:54.915 : mul:Fire land flashback
00:25:24.231 : mul:Return to city hall
00:26:11.194 : mul:Air stadium
00:31:29.220 : mul:Swept away
00:32:33.368 : mul:Hot air balloon
00:35:54.235 : mul:Culvert
00:38:32.018 : mul:Connection montage
00:42:43.185 : mul:Watered down
00:47:11.787 : mul:Candlelight
00:51:35.634 : mul:Water dinner
00:58:51.528 : mul:Cinder finds out
01:02:46.262 : mul:Bernie's gift
01:05:08.571 : mul:Bubble dame
01:09:46.015 : mul:First touch
01:13:47.589 : mul:Grand reopening
01:18:00.217 : mul:Dark ember
01:19:22.257 : mul:Fire town flood
01:24:23.099 : mul:After the flood
01:28:28.511 : mul:The bow
01:31:37.867 : mul:End credits
01:33:51.876 : mul:Credit crawl
Релиз от:
[Profile] [PM]
Display posts:    
Reply to topic

Current time is: 20-Apr 17:23

All times are UTC + 3



You cannot post new topics in this forum
You cannot reply to topics in this forum
You cannot edit your posts in this forum
You cannot delete your posts in this forum
You cannot vote in polls in this forum
You cannot attach files in this forum
You cannot download files in this forum