Внутренняя Мимперия [1 сезон: 1-12 серии из 12] (2024) WEBRip 1080p

Reply to topic
 
Author Message

ltctgnbrjy ®

Longevity: 5 years 6 months

Posts: 6

Post 25-May-2024 10:42

[Quote]

Внутренняя Мимперия- Год выпуска: 2024
Жанр: Мультфильм, Анимация, Комедия
Выпущено: Россия | «2x2», «PREMIER»
Режиссер: Пётр Тарасов
В ролях: Павел Артемьев, Алиса Кретова, Таисия Пальцева, Владимир Маркони, Марина Бакина, Евгений Рубцов, Никита Балабаев, Данил Тябин, Олег Куценко, Полина Щербакова
О фильме: Безработный неудачник Пандыч становится главным по подъезду и проваливается в настоящий бытовой апокалипсис. Его соседи: семья Деревановых, Вампир в законе, Дедозавр, злодей Мим и другие бесконечно ругаются, спорят и жалуются в чатике подъезда, за которым теперь вынужден следить Пандыч.
Решая проблемы со сломанным лифтом, круглосуточными магазинами “Черное и белое” и шумными вечеринками Пандыч находит новых друзей и потихоньку начинает разбираться в собственной жизни.

Возраст: 16+ (зрителям, достигшим 16 лет)
Качество: WEBRip 1080p
Видео: AVC/H.264, 1920x1072, 25.00 fps, ~4500 kbps,
Аудио: AAC, 2 ch, 192 Kbps
Продолжительность: 00:15:10 серия
Перевод: Не требуется [Русский]
Cубтитры: Отсутствуют

Скриншоты

MediaInfo

General
Unique ID : 256626454989410282234090041198917995376 (0xC110751962BC61EAEA518BEE2C504B70)
Complete name : Внутренняя_Мимперия_2024_1080p_01.mkv
Format : Matroska
Format version : Version 4
File size : 506 MiB
Duration : 15 min 10 s
Overall bit rate mode : Variable
Overall bit rate : 4 664 kb/s
Frame rate : 25.000 FPS
Encoded date : 2024-05-25 05:32:40 UTC
Writing application : mkvmerge v77.0 ('Elemental') 64-bit
Writing library : libebml v1.4.4 + libmatroska v1.7.1
Video
ID : 1
Format : AVC
Format/Info : Advanced Video Codec
Format profile : High@L4.1
Format settings : CABAC / 4 Ref Frames
Format settings, CABAC : Yes
Format settings, Reference : 4 frames
Codec ID : V_MPEG4/ISO/AVC
Duration : 15 min 10 s
Bit rate mode : Variable
Bit rate : 4 500 kb/s
Width : 1 920 pixels
Height : 1 072 pixels
Display aspect ratio : 16:9
Frame rate mode : Constant
Frame rate : 25.000 FPS
Color space : YUV
Chroma subsampling : 4:2:0
Bit depth : 8 bits
Scan type : Progressive
Bits/(Pixel*Frame) : 0.087
Stream size : 485 MiB (96%)
Default : Yes
Forced : No
Color range : Limited
Color primaries : BT.709
Transfer characteristics : BT.709
Matrix coefficients : BT.709
Audio
ID : 2
Format : AAC LC
Format/Info : Advanced Audio Codec Low Complexity
Codec ID : A_AAC-2
Duration : 15 min 10 s
Bit rate : 192 kb/s
Channel(s) : 2 channels
Channel layout : L R
Sampling rate : 48.0 kHz
Frame rate : 46.875 FPS (1024 SPF)
Compression mode : Lossy
Delay relative to video : -120 ms
Stream size : 20.8 MiB (4%)
Default : Yes
Forced : No
[Profile] [PM]
Display posts:    
Reply to topic

Current time is: 24-Jun 22:35

All times are UTC + 3



You cannot post new topics in this forum
You cannot reply to topics in this forum
You cannot edit your posts in this forum
You cannot delete your posts in this forum
You cannot vote in polls in this forum
You cannot attach files in this forum
You cannot download files in this forum