Киллджойс / Killjoys [4 сезон: 1-10 серии из 10] (2018) WEB-DL 1080p | LostFilm

Reply to topic
 
Author Message

Generall ®

Gender: Male

Longevity: 2 years 3 months

Posts: 11

Post 03-Dec-2018 19:29

[Quote]

Килджой (Киллджойс, Кайфоломы) / Killjoys
Год выпуска: 2018
Жанр: Фантастика, боевик, триллер, приключения
Выпущено: Канада, Temple Street Productions Limited
Режиссер: Крис Грисмер, Паоло Барзмен, Энди Микита
В ролях: Аарон Эшмор, Ханна Джон-Кэймен, Люк МакФарлейн, Роб Стюарт, Сара Пауэр, Том Эллисон (I), Тамсен МакДонаф, Нора МакЛеллан, Морган Келли, Фрэнк Мур, Шон Баек, Патрик Гэрроу, Мэйко Нгуйен, Аманда Таппинг, Данка Сцепанович
О фильме: «Киллджойс» — научно-фантастический сериал телеканала SyFy, повествующий о том, как трио профессиональных охотников за головами бороздит просторы Вселенной с целью поимки и свершения правосудия над самыми опасными преступниками. Шоу изобилует зрелищными сценами погонь и перестрелок, специфическим юмором космических головорезов, сложнейшими заданиями и, конечно, конфликтами, завязанными на преданности своему делу, дружеских спорах и любовных переживаниях. «Киллджойс» станет настоящей находкой для всех поклонников легкой фантастики и увлекательных приключений на фоне захватывающих дух пейзажей бескрайнего космоса.
Качество: WEB-DL (1080p)
Видео: MPEG-4 AVC, ~ 6000 Кбит/с, 1920х1080
Аудио: Русский (AC3, 2 ch, 384 Кбит/с), английский (E-AC3, 6 ch, 640 Кбит/с)
Продолжительность: 10 x ~ 00:45:00
Перевод: Профессиональный (многоголосый закадровый)
Cубтитры: Русские, английские

Скриншоты


MediaInfo

Общее
Уникальный идентификатор : 301873923245953186844058078693546135777 (0xE31ACD85ABB537ADB073D1B858C610E1)
Полное имя : D:\Killjoys.S04.1080p.WEB-DL.LostFilm\Killjoys.S04E01.The.Warrior.Princess.Bride.1080p.WEB-DL.LostFilm.mkv
Формат : Matroska
Версия формата : Version 4 / Version 2
Размер файла : 2,11 Гбайт
Продолжительность : 43 м. 8 с.
Общий поток : 6995 Кбит/сек
Название фильма : Королева воинов, принцесса-невеста
Дата кодирования : UTC 2018-07-23 12:28:33
Программа кодирования : mkvmerge v25.0.0 ('Prog Noir') 32-bit
Библиотека кодирования : libebml v1.3.6 + libmatroska v1.4.9
Обложка : Yes
Attachments : cover.killjoys.jpg
Видео
Идентификатор : 1
Формат : AVC
Формат/Информация : Advanced Video Codec
Профиль формата : High@L4
Настройки формата : CABAC / 4 Ref Frames
Параметр CABAC формата : Да
Параметр RefFrames формата : 4 кадра
Идентификатор кодека : V_MPEG4/ISO/AVC
Продолжительность : 43 м. 8 с.
Битрейт : 5968 Кбит/сек
Ширина : 1920 пикселей
Высота : 1080 пикселей
Соотношение сторон : 16:9
Режим частоты кадров : Постоянный
Частота кадров : 23,976 (24000/1001) кадра/сек
Цветовое пространство : YUV
Субдискретизация насыщенности : 4:2:0
Битовая глубина : 8 бит
Тип развёртки : Прогрессивная
Бит/(Пиксели*Кадры) : 0.120
Размер потока : 1,80 Гбайт (85%)
Язык : English
Default : Да
Forced : Нет
Цветовой диапазон : Limited
Основные цвета : BT.709
Характеристики трансфера : BT.709
Коэффициенты матрицы : BT.709
Аудио #1
Идентификатор : 2
Формат : AC-3
Формат/Информация : Audio Coding 3
Идентификатор кодека : A_AC3
Продолжительность : 43 м. 7 с.
Вид битрейта : Постоянный
Битрейт : 384 Кбит/сек
Каналы : 2 канала
Расположение каналов : Front: L R
Частота : 48,0 КГц
Частота кадров : 31,250 кадров/сек (1536 SPF)
Битовая глубина : 16 бит
Метод сжатия : С потерями
Размер потока : 118 Мбайт (5%)
Заголовок : AC3 2.0 @ 384 kbps - MVO, LostFilm
Язык : Russian
ServiceKind/String : Complete Main
Default : Да
Forced : Нет
Аудио #2
Идентификатор : 3
Формат : E-AC-3
Формат/Информация : Enhanced Audio Coding 3
Идентификатор кодека : A_EAC3
Продолжительность : 43 м. 8 с.
Вид битрейта : Постоянный
Битрейт : 640 Кбит/сек
Каналы : 6 каналов
Расположение каналов : Front: L C R, Side: L R, LFE
Частота : 48,0 КГц
Частота кадров : 187,500 кадров/сек (256 SPF)
Метод сжатия : С потерями
Размер потока : 197 Мбайт (9%)
Заголовок : E-AC3 5.1 @ 640 kbps - Original
Язык : English
ServiceKind/String : Complete Main
Default : Нет
Forced : Нет
Текст #1
Идентификатор : 4
Формат : UTF-8
Идентификатор кодека : S_TEXT/UTF8
Идентификатор кодека/Информация : UTF-8 Plain Text
Продолжительность : 42 м. 40 с.
Битрейт : 81 бит/сек
ElementCount : 964
Размер потока : 25,5 Кбайт (0%)
Заголовок : Full
Язык : English
Default : Нет
Forced : Нет
Текст #2
Идентификатор : 5
Формат : UTF-8
Идентификатор кодека : S_TEXT/UTF8
Идентификатор кодека/Информация : UTF-8 Plain Text
Продолжительность : 42 м. 40 с.
Битрейт : 93 бит/сек
ElementCount : 1112
Размер потока : 29,1 Кбайт (0%)
Заголовок : Full SDH
Язык : English
Default : Нет
Forced : Нет
[Profile] [PM]
Display posts:    
Reply to topic

Current time is: 04-Mar 03:40

All times are UTC + 3



You cannot post new topics in this forum
You cannot reply to topics in this forum
You cannot edit your posts in this forum
You cannot delete your posts in this forum
You cannot vote in polls in this forum
You cannot attach files in this forum
You cannot download files in this forum