Мирай из будущего / Mirai no Mirai (Mirai of the Future) (2018) BDRip 1080p | iTunes

Reply to topic
 
Author Message

Monk ®

Gender: Male

Longevity: 9 months 10 days

Posts: 7980

Location: Казань

Post 22-Apr-2019 12:21

[Quote]

Мирай из будущего / Mirai no Mirai (Mirai of the Future) Год выпуска: 2018
Жанр: Фэнтези, драма, приключения, полнометражный
Выпущено: Япония, Dentsu, Kadokawa, NTT Docomo
Режиссер: Мамору Хосода
В ролях: Мока Кимисирайси, Хару Куроки, Гэн Хосино, Кумико Асо, Мицуо Ёсихара, Ёсико Миядзаки, Кодзи Якусё, Масахару Фукуяма
О фильме: Мальчик Кун наслаждается беззаботным детством, пока на свет не появляется его маленькая сестра Мирай. Кун очень ревнует родителей к ней, так как младенец притягивает к себе все их внимание. Он часто прячется на заднем дворе дома, где растет магическое семейное дерево. Внезапно Кун оказывается в фантастическом мире, где переплелись настоящее, прошлое и будущее. Один за другим он встречает своих родственников из разных времен: маму он видит маленькой девочкой, прадедушку — сильным юношей, а свою младшую сестру — тинейджером. Благодаря этим невероятным приключениям, Кун открывает для себя новый мир.
Качество: BDRip 1080p
Видео: MPEG-4 AVC, 8600 Кбит/с, 1920x1036
Аудио: Русский (AC3, 6 ch, 384 Кбит/с)
Продолжительность: 01:37:55
Перевод: Дублированный [iTunes]
Субтитры: Русские, английские (Софтсаб)

Скриншоты



MediaInfo

Общее
Уникальный идентификатор : 222903561768466167416734904755201676204 (0xA7B1AA1837F37C32D1B755C2BC6A93AC)
Полное имя : Mirai.no.Mirai.2018.BDRip.1080p.x264.RUS.mkv
Формат : Matroska
Версия формата : Version 4
Размер файла : 6,05 Гбайт
Продолжительность : 1 ч. 37 м.
Общий поток : 8852 Кбит/сек
Дата кодирования : UTC 2019-02-17 07:39:14
Программа кодирования : mkvmerge v28.2.0 ('The Awakening') 64-bit
Библиотека кодирования : libebml v1.3.6 + libmatroska v1.4.9
Видео
Идентификатор : 1
Формат : AVC
Формат/Информация : Advanced Video Codec
Профиль формата : High@L4.1
Настройки формата : CABAC / 4 Ref Frames
Параметр CABAC формата : Да
Параметр RefFrames формата : 4 кадра
Идентификатор кодека : V_MPEG4/ISO/AVC
Продолжительность : 1 ч. 37 м.
Битрейт : 8600 Кбит/сек
Ширина : 1920 пикселей
Высота : 1036 пикселей
Соотношение сторон : 1,85:1
Режим частоты кадров : Постоянный
Частота кадров : 24,000 кадра/сек
Цветовое пространство : YUV
Субдискретизация насыщенности : 4:2:0
Битовая глубина : 8 бит
Тип развёртки : Прогрессивная
Бит/(Пиксели*Кадры) : 0.180
Размер потока : 5,88 Гбайт (97%)
Библиотека кодирования : x264 core 130 r2273 b3065e6
Настройки программы : cabac=1 / ref=4 / deblock=1:-1:-1 / analyse=0x3:0x113 / me=umh / subme=11 / psy=1 / psy_rd=1.00:0.00 / mixed_ref=1 / me_range=32 / chroma_me=1 / trellis=2 / 8x8dct=1 / cqm=0 / deadzone=21,11 / fast_pskip=0 / chroma_qp_offset=-4 / threads=12 / lookahead_threads=2 / sliced_threads=0 / nr=0 / decimate=0 / interlaced=0 / bluray_compat=0 / constrained_intra=0 / bframes=8 / b_pyramid=2 / b_adapt=2 / b_bias=0 / direct=3 / weightb=1 / open_gop=0 / weightp=2 / keyint=250 / keyint_min=24 / scenecut=40 / intra_refresh=0 / rc_lookahead=80 / rc=2pass / mbtree=1 / bitrate=8600 / ratetol=1.0 / qcomp=0.60 / qpmin=0 / qpmax=69 / qpstep=4 / cplxblur=20.0 / qblur=0.5 / ip_ratio=1.40 / aq=1:0.85
Язык : Japanese
Default : Да
Forced : Нет
Аудио
Идентификатор : 2
Формат : AC-3
Формат/Информация : Audio Coding 3
Коммерческое название : Dolby Digital
Идентификатор кодека : A_AC3
Продолжительность : 1 ч. 37 м.
Вид битрейта : Постоянный
Битрейт : 256 Кбит/сек
Каналы : 2 канала
Channel layout : L R
Частота : 48,0 КГц
Частота кадров : 31,250 кадров/сек (1536 SPF)
Битовая глубина : 16 бит
Метод сжатия : С потерями
Размер потока : 179 Мбайт (3%)
Заголовок : [Дубляж]
Язык : Russian
ServiceKind/String : Complete Main
Default : Да
Forced : Нет
[Profile] [PM]
Display posts:    
Reply to topic

Current time is: 24-Aug 15:40

All times are UTC + 3



You cannot post new topics in this forum
You cannot reply to topics in this forum
You cannot edit your posts in this forum
You cannot delete your posts in this forum
You cannot vote in polls in this forum
You cannot attach files in this forum
You cannot download files in this forum