Игра престолов / Game of Thrones [8 сезон: 1-6 серии из 6] (2019) WEB-DLRip 720p от Files-x | Кравец

Reply to topic
 
Author Message

papa1951deda ®

Gender: Male

Longevity: 6 months 25 days

Posts: 248

Location: Казахстан

Post 22-Apr-2019 15:56

[Quote]

Игра престолов / Game of Thrones Год выхода: 2019
Жанр: Драма, фэнтези, приключения, экранизация
Выпущено: США, Великобритания, Bighead Littlehead, Created By, Generator Entertainment, Home Box Office (HBO)
Режиссер: Джереми Подесва, Дэниэл Сакхайм, Джек Бендер, Марк Майлод, Мигель Сапочник
В ролях: Питер Динклэйдж, Иэн Глен, Николай Костер-Валдау, Лина Хиди, Эмилия Кларк, Кит Харингтон, Лиам Каннингэм, Кэрис ван Хаутен, Натали Дормер, Индира Варма, Софи Тёрнер, Мэйси Уильямс, Конлет Хилл, Элфи Оуэн-Аллен, Гвендолин Кристи, Джонатан Прайс, Майкл МакЭлхаттон, Иван Реон, Джозеф Науфаху, Ханна Уэддингхэм, Розабелла Лауренти Селлерс, Дэниэл Портман, Фэй Марсей, Оуэн Тил
О фильме:«Игра престолов» новый сериал HBO, основанный на бестселлерах Джорджа Р.Р. Мартина. В мире, где лето и зимы длятся десятилетиями, на кону корона Вестероса. Предательство, похоть, интриги и сверхъестественные силы сотрясают все четыре стороны Королевства — от плетущего интриги юга, диких восточных земель, до замерзшего севера и древней Стены, что защищает королевство от тьмы за нею. Короли и королевы, рыцари и мятежники, лжецы и благородные люди борются за власть в кровавом сражении за Железный Трон. Экранизация по произведению: Джордж Р.Р. Мартин.
Качество: WEB-DLRip 720p
Видео: MPEG-4 AVC, ~ 3500 Кбит/с, 1280x720, 23.976 кадр/с
Аудио: Русский (AC3, 2 ch, 192 Кбит/с), английский (E-AC3, 6 ch, 640 Кбит/с)
Продолжительность: 6 x ~ 00:55:00
Перевод: Дублированный | Кравец
Субтитры: Русские (Forced, Full), английские (SDH)

Скриншоты

MediaInfo

General
Unique ID : 244804110310595554030400860862078035628 (0xB82B8E80FBA9636D9E0CF3738F7CA6AC)
Complete name : C:\Users\user\Downloads\Video\Game.of.Thrones.S08E01.WEB-DL 720p. Files-x.mkv
Format : Matroska
File size : 1.69 GiB
Duration : 55mn 47s
Overall bit rate : 4 334 Kbps
Movie name : Винтерфелл
Encoded date : UTC 2019-04-22 07:58:19
Writing application : mkvmerge v32.0.0 ('Astral Progressions') 64-bit
Writing library : libebml v1.3.7 + libmatroska v1.5.0
PART_NUMBER : 1
TOTAL_PARTS : 6
DATE_RELEASED : UTC 2019-04-14 21:00:00
TITLE : Winterfell
DESCRIPTION : Arriving at Winterfell, Jon and Daenerys struggle to unite a divided North. Jon gets some big news.
COPYRIGHT : EniaHD
DURATION : 00:55:41.958000000
NUMBER_OF_FRAMES : 665
NUMBER_OF_BYTES : 18817
_STATISTICS_WRITING_APP : mkvmerge v32.0.0 ('Astral Progressions') 64-bit
_STATISTICS_WRITING_DATE_UTC : 2019-04-22 07:58:19
_STATISTICS_TAGS : BPS DURATION NUMBER_OF_FRAMES NUMBER_OF_BYTES
Attachment : Yes
Video
ID : 6
Format : AVC
Format/Info : Advanced Video Codec
Format profile : High@L4.1
Format settings, CABAC : Yes
Format settings, ReFrames : 9 frames
Codec ID : V_MPEG4/ISO/AVC
Duration : 55mn 47s
Bit rate : 3 500 Kbps
Width : 1 280 pixels
Height : 720 pixels
Display aspect ratio : 16:9
Frame rate : 23.976 fps
Color space : YUV
Chroma subsampling : 4:2:0
Bit depth : 8 bits
Scan type : Progressive
Bits/(Pixel*Frame) : 0.158
Stream size : 1.33 GiB (79%)
Writing library : x264 core 146 r2538 121396c
Encoding settings : cabac=1 / ref=9 / deblock=1:-2:-1 / analyse=0x3:0x133 / me=umh / subme=9 / psy=1 / psy_rd=1.00:0.20 / mixed_ref=1 / me_range=32 / chroma_me=1 / trellis=2 / 8x8dct=1 / cqm=0 / deadzone=21,11 / fast_pskip=0 / chroma_qp_offset=-3 / threads=18 / lookahead_threads=3 / sliced_threads=0 / nr=0 / decimate=1 / interlaced=0 / bluray_compat=0 / constrained_intra=0 / bframes=9 / b_pyramid=2 / b_adapt=2 / b_bias=0 / direct=1 / weightb=1 / open_gop=0 / weightp=2 / keyint=250 / keyint_min=23 / scenecut=40 / intra_refresh=0 / rc=2pass / mbtree=0 / bitrate=3500 / ratetol=1.0 / qcomp=0.60 / qpmin=0 / qpmax=69 / qpstep=4 / cplxblur=20.0 / qblur=0.5 / ip_ratio=1.40 / pb_ratio=1.35 / aq=2:1.30
Language : English
Color primaries : BT.709-5, BT.1361, IEC 61966-2-4, SMPTE RP177
Transfer characteristics : BT.709-5, BT.1361
Matrix coefficients : BT.709-5, BT.1361, IEC 61966-2-4 709, SMPTE RP177
Audio #1
ID : 1
Format : AC-3
Format/Info : Audio Coding 3
Mode extension : CM (complete main)
Codec ID : A_AC3
Duration : 55mn 47s
Bit rate mode : Constant
Bit rate : 192 Kbps
Channel(s) : 2 channels
Channel positions : Front: L R
Sampling rate : 48.0 KHz
Bit depth : 16 bits
Compression mode : Lossy
Stream size : 76.6 MiB (4%)
Title : AC3 2.0 @ 192 kbps - DUB, Kravec
Language : Russian
DURATION : 00:55:45.306000000
NUMBER_OF_FRAMES : 80207
NUMBER_OF_BYTES : 1463278777
_STATISTICS_WRITING_APP : mkvmerge v32.0.0 ('Astral Progressions') 64-bit
_STATISTICS_WRITING_DATE_UTC : 2019-04-22 07:58:19
_STATISTICS_TAGS : BPS DURATION NUMBER_OF_FRAMES NUMBER_OF_BYTES
Audio #2
ID : 2
Format : E-AC-3
Format/Info : Audio Coding 3
Codec ID : A_EAC3
Duration : 55mn 47s
Bit rate mode : Constant
Bit rate : 640 Kbps
Channel(s) : 6 channels
Channel positions : Front: L C R, Side: L R, LFE
Sampling rate : 48.0 KHz
Compression mode : Lossy
Delay relative to video : 8ms
Stream size : 255 MiB (15%)
Title : E-AC3 5.1 @ 640 kbps - Original
Language : English
Text #1
ID : 3
Format : UTF-8
Codec ID : S_TEXT/UTF8
Codec ID/Info : UTF-8 Plain Text
Title : Forced
Language : Russian
Text #2
ID : 4
Format : UTF-8
Codec ID : S_TEXT/UTF8
Codec ID/Info : UTF-8 Plain Text
Title : Full
Language : Russian
Text #3
ID : 5
Format : UTF-8
Codec ID : S_TEXT/UTF8
Codec ID/Info : UTF-8 Plain Text
Title : Full SDH
Language : English
Menu
00:00:00.000 : en:Ratings
00:00:03.944 : en:Previously On
00:01:59.944 : en:Studio Logo
00:02:05.944 : en:Opening Credits
00:03:52.944 : en:Arrival in Winterfell
00:09:46.944 : en:Fight together or die
00:12:53.944 : en:Sansa sees through the lies
00:15:36.944 : en:A tearful reunion
00:17:45.944 : en:A queen must be earned
00:22:40.944 : en:Cersei asks a favor of Bronn
00:25:25.944 : en:What is dead may never die
00:29:24.944 : en:Hold on to whatever you can
00:36:41.944 : en:A forge for dragonglass
00:39:11.944 : en:Sansa is frustrated with Jon's choice
00:41:03.944 : en:The head of House Tarly
00:44:32.944 : en:It's time for Jon to know the truth
00:48:40.944 : en:A message from the Night King
00:52:28.944 : en:An unexpected visitor
00:53:43.944 : en:End Credits
00:55:03.944 : en:Next Time
00:55:40.944 : en:Inside Game of Thrones
Релиз от:
[Profile] [PM]
Display posts:    
Reply to topic

Current time is: 16-Jun 11:03

All times are UTC + 3



You cannot post new topics in this forum
You cannot reply to topics in this forum
You cannot edit your posts in this forum
You cannot delete your posts in this forum
You cannot vote in polls in this forum
You cannot attach files in this forum
You cannot download files in this forum