Великолепная пятерка [6 сезон: 1-51 серии из ?] (2023) WEB-DLRip-AVC от Files-x

Reply to topic
 
Author Message

Серый1779 ®

Gender: Male

Longevity: 5 years 3 months

Posts: 3405

Location: Украина

Post 04-Dec-2023 17:18

[Quote]

Великолепная пятерка Год выпуска: 2023
Жанр: Детектив, драма
Выпущено: Россия, Кинокомпания "Триикс Медиа" по заказу Пятого канала
Режиссер: Сергей Полуянов (II), Михаил Тимофеев, Ратмир Лутфуллин, Александр Глинский, Арменак Назикян, Александр Колесник, Андрей Щербинин, Семен Копылов
В ролях: Павел Григорьев, Андрей Горбачёв, Алексей Красноцветов, Нодар Джанелидзе, Константин Гришанов, Егор Кутенков, Сергей Шоколов, Станислав Раевский, Андрей Перович, Людмила Бояринова, Полина Ульянова, Татьяна Ющина, Юлия Зоркина, Виктор Выбриенко, Олеся Бережная, Вероника Ляпкова, Анна Трофимычева, Матвей Воронин, Ольга Гордийчук, Сергей Выборнов
О фильме: Великолепная пятерка — популярный телевизионный сериал, который уже давно завоевал сердца многих зрителей. Уже пять сезонов подряд поклонники следят за увлекательными приключениями главных героев. Но всякий раз, когда сезон подходит к концу, фанаты задают один и тот же вопрос: когда же выйдет следующая серия, нового сезона? Великолепная пятерка — это не просто сериал о дружбе и любви, это настоящий эталон стиля и элегантности. Каждая серия наполнена загадками, интригами и романтикой. А главные герои — пятеро друзей, каждый из которых обладает своей уникальной личностью и талантами. Их приключения становятся все более захватывающими с каждым сезоном. Новый сезон будет содержать еще больше захватывающих сюжетных поворотов и неожиданных развязок. Постоянный состав актеров вернется , чтобы продолжить свои роли и удивить зрителей новыми эпизодами. Также известно, что создатели сериала обратят особое внимание на качество спецэффектов и визуальных эффектов. Зрители смогут насладиться потрясающей картинкой и зрелищными сценами. Не остается и сомнений, что новый сезон сериала «Великолепная пятерка» будет замечательным продолжением популярной и увлекательной истории.

Качество: WEB-DLRip-AVC
Видео: MPEG-4 AVC, ~ 1600 Кбит/с, 1024x576, 25 кадр/с
Аудио: AC3, 2 ch, 192 Кбит/с
Продолжительность: 51 х ~ 00:40:20
Перевод: Не требуется
Субтитры: Нет

Скриншоты



MediaInfo

General
Unique ID : 253097014055874484667221265805040442128 (0xBE68B639DEA082F9B0128D08D86C5B10)
Complete name : F:\Великолепная пятерка.S06.(2023).WEBRip.(AVC).Files-x\01.Великолепная пятерка.S06.(2023).WEBRip.(AVC).by.Серый1779.Files-x.mkv
Format : Matroska
Format version : Version 2
File size : 503 MiB
Duration : 39 min 14 s
Overall bit rate : 1 792 kb/s
Encoded date : UTC 2023-12-03 23:02:32
Writing application : mkvmerge v7.8.0 ('River Man') 32bit built on Apr 3 2015 12:11:22
Writing library : libebml v1.3.1 + libmatroska v1.4.2
Video
ID : 1
Format : AVC
Format/Info : Advanced Video Codec
Format profile : High@L4.1
Format settings : CABAC / 9 Ref Frames
Format settings, CABAC : Yes
Format settings, RefFrames : 9 frames
Codec ID : V_MPEG4/ISO/AVC
Duration : 39 min 14 s
Bit rate : 1 600 kb/s
Width : 1 024 pixels
Height : 576 pixels
Display aspect ratio : 16:9
Frame rate mode : Constant
Frame rate : 25.000 FPS
Color space : YUV
Chroma subsampling : 4:2:0
Bit depth : 8 bits
Scan type : Progressive
Bits/(Pixel*Frame) : 0.109
Stream size : 439 MiB (87%)
Writing library : x264 core 146 r2538 121396c
Encoding settings : cabac=1 / ref=9 / deblock=1:-2:-1 / analyse=0x3:0x133 / me=umh / subme=9 / psy=1 / psy_rd=1.00:0.15 / mixed_ref=1 / me_range=32 / chroma_me=1 / trellis=2 / 8x8dct=1 / cqm=0 / deadzone=21,11 / fast_pskip=0 / chroma_qp_offset=-3 / threads=18 / lookahead_threads=3 / sliced_threads=0 / nr=0 / decimate=1 / interlaced=0 / bluray_compat=0 / constrained_intra=0 / bframes=9 / b_pyramid=2 / b_adapt=2 / b_bias=0 / direct=1 / weightb=1 / open_gop=0 / weightp=2 / keyint=250 / keyint_min=25 / scenecut=40 / intra_refresh=0 / rc=2pass / mbtree=0 / bitrate=1600 / ratetol=1.0 / qcomp=0.60 / qpmin=0 / qpmax=69 / qpstep=4 / cplxblur=20.0 / qblur=0.5 / ip_ratio=1.40 / pb_ratio=1.30 / aq=2:1.00
Default : Yes
Forced : No
Color range : Limited
Color primaries : BT.709
Transfer characteristics : BT.709
Matrix coefficients : BT.709
Audio
ID : 2
Format : AC-3
Format/Info : Audio Coding 3
Format settings, Endianness : Big
Codec ID : A_AC3
Duration : 39 min 14 s
Bit rate mode : Constant
Bit rate : 192 kb/s
Channel(s) : 2 channels
Channel positions : Front: L R
Sampling rate : 48.0 kHz
Frame rate : 31.250 FPS (1536 SPF)
Bit depth : 16 bits
Compression mode : Lossy
Stream size : 53.9 MiB (11%)
Service kind : Complete Main
Default : Yes
Forced : No

Раздача ведётся путём добавления новых серий

Внимание! Раздача ведётся путём добавления новых серий; при каждом добавлении создаётся новый торрент.
Чтобы начать докачку новой серии, пользователям необходимо сделать следующее:
1. Остановить скачивание;
2. Удалить старый торрент у себя из клиента (старые серии удалять не надо);
3. Скачать новый торрент и запустить его у себя в клиенте вместо старого, при этом указать клиенту путь в старую папку куда и должно происходить скачивание новых серий. Ваш клиент при этом должен произвести хеширование (проверку) старой папки и будет докачивать только те серии, которых у вас ещё нет. Старые серии при этом не удаляются, а продолжают раздаваться! Eсли вы уже удалили старые серии, то предотвратить повторную закачку старых серий можно, отжав галочку в соответствующих местах при запуске нового торрента.
Релиз от:

Release was prepared by RG Files-x

[Profile] [PM]
Display posts:    
Reply to topic

Current time is: 02-Mar 05:56

All times are UTC + 3



You cannot post new topics in this forum
You cannot reply to topics in this forum
You cannot edit your posts in this forum
You cannot delete your posts in this forum
You cannot vote in polls in this forum
You cannot attach files in this forum
You cannot download files in this forum