Охота на воров (Театральная версия) / Den of Thieves (Theatrical Cut) (2018) BDRip | Лицензия

Reply to topic
 
Author Message

Monk ®

Gender: Male

Longevity: 8 months 8 days

Posts: 7553

Location: Казань

Post 27-Nov-2018 12:27

[Quote]

Охота на воров (Театральная версия) / Den of Thieves (Theatrical Cut) Год выпуска: 2018
Жанр: Боевик, триллер, драма, криминал, детектив
Выпущено: США, Diamond Film Productions, G-BASE, Tucker Tooley Entertainment
Режиссер: Кристиан Гьюдгэст
В ролях: Джерард Батлер, Джордан Бриджес, Пабло Шрайбер, Ивэн Джонс, О`Ши Джексон мл., 50 Cent, Соня Балморес, Эрик Браден, Брайан Ван Холт, Морис Комт
О фильме: Калифорнийские бандиты с военным прошлым под началом Рэя Мерримена угоняют грузовик инкассаторов и расстреливают полицейских, которые пытаются им помешать. Расследование берет на себя детектив Ник О’Брайен из отдела особо тяжких преступлений, который открыто манкирует уставом и называет себя «бандитом со значком». Пока Ник и его люди ломают голову, зачем проливать кровь ради пустой машины, Рэй и его банда планируют нападение на отделение Федерального резерва – самое охраняемое федеральное здание в Лос-Анджелесе. Нику удается превратить одного из подчиненных Рэя в полицейского стукача, но план Мерримена предусматривает повышенное внимание копов.

Качество: BDRip
Видео: MPEG-4 AVC, 1757 Кбит/с, 720x300
Аудио: AC3, 6 ch, 448 Кбит/с
Продолжительность: 02:20:28
Перевод: Дублированный [Лицензия]
Субтитры: Русские, английские

Скриншоты


MediaInfo

General
Unique ID : 172569877801976320173383512916895799020 (0x81D3BFE04497E7D5AD3AFDB4A8ED16EC)
Complete name : D:\Den.of.Thieves.2018.D.BDRip.AVC.ExKinoRay.mkv
Format : Matroska
Format version : Version 2
File size : 2.16 GiB
Duration : 2 h 20 min
Overall bit rate : 2 204 kb/s
Movie name : Охота на воров 2018 from ExKinoRay
Encoded date : UTC 2018-07-03 14:50:02
Writing application : mkvmerge v5.6.0 ('Kenya Kane') built on May 27 2012 16:44:04
Writing library : libebml v1.2.3 + libmatroska v1.3.0
Video
ID : 1
Format : AVC
Format/Info : Advanced Video Codec
Format profile : High@L4.1
Format settings, CABAC : Yes
Format settings, ReFrames : 12 frames
Codec ID : V_MPEG4/ISO/AVC
Duration : 2 h 20 min
Bit rate : 1 757 kb/s
Width : 720 pixels
Height : 300 pixels
Display aspect ratio : 2.40:1
Frame rate mode : Constant
Frame rate : 23.976 (24000/1001) FPS
Original frame rate : 23.976 (23976/1000) FPS
Color space : YUV
Chroma subsampling : 4:2:0
Bit depth : 8 bits
Scan type : Progressive
Bits/(Pixel*Frame) : 0.339
Stream size : 1.68 GiB (78%)
Title : Enigma
Writing library : x264 core 152 r2851 ba24899
Encoding settings : cabac=1 / ref=12 / deblock=1:-3:-3 / analyse=0x3:0x113 / me=umh / subme=10 / psy=1 / psy_rd=1.04:0.10 / mixed_ref=1 / me_range=32 / chroma_me=1 / trellis=2 / 8x8dct=1 / cqm=0 / deadzone=21,11 / fast_pskip=0 / chroma_qp_offset=-3 / threads=9 / lookahead_threads=2 / sliced_threads=0 / nr=0 / decimate=0 / interlaced=0 / bluray_compat=0 / constrained_intra=0 / bframes=12 / b_pyramid=2 / b_adapt=2 / b_bias=0 / direct=3 / weightb=1 / open_gop=0 / weightp=2 / keyint=240 / keyint_min=23 / scenecut=40 / intra_refresh=0 / rc_lookahead=40 / rc=2pass / mbtree=0 / bitrate=1757 / ratetol=1.0 / qcomp=0.60 / qpmin=0 / qpmax=51 / qpstep=4 / cplxblur=20.0 / qblur=0.5 / vbv_maxrate=50000 / vbv_bufsize=62500 / nal_hrd=none / filler=0 / ip_ratio=1.40 / pb_ratio=1.30 / aq=3:0.90
Default : Yes
Forced : No
Color range : Limited
Color primaries : BT.709
Transfer characteristics : BT.709
Matrix coefficients : BT.709
Audio
ID : 2
Format : AC-3
Format/Info : Audio Coding 3
Mode extension : CM (complete main)
Format settings, Endianness : Big
Codec ID : A_AC3
Duration : 2 h 20 min
Bit rate mode : Constant
Bit rate : 448 kb/s
Channel(s) : 6 channels
Channel positions : Front: L C R, Side: L R, LFE
Sampling rate : 48.0 kHz
Frame rate : 31.250 FPS (1536 spf)
Compression mode : Lossy
Stream size : 450 MiB (20%)
Title : Dub (BluRay Rus)
Language : Russian
Default : Yes
Forced : No
Text #1
ID : 3
Format : UTF-8
Codec ID : S_TEXT/UTF8
Codec ID/Info : UTF-8 Plain Text
Language : Russian
Default : No
Forced : No
Text #2
ID : 4
Format : UTF-8
Codec ID : S_TEXT/UTF8
Codec ID/Info : UTF-8 Plain Text
Language : English
Default : No
Forced : No
Menu
00:00:00.000 : en:1
00:09:15.000 : en:2
00:18:58.000 : en:3
00:31:49.000 : en:4
00:38:14.000 : en:5
00:48:11.000 : en:6
00:58:05.000 : en:7
01:08:43.000 : en:8
01:16:24.000 : en:9
01:26:19.000 : en:10
01:41:35.000 : en:11
01:49:43.000 : en:12
02:08:22.000 : en:13
[Profile] [PM]
Display posts:    
Reply to topic

Current time is: 23-Jul 11:48

All times are UTC + 3



You cannot post new topics in this forum
You cannot reply to topics in this forum
You cannot edit your posts in this forum
You cannot delete your posts in this forum
You cannot vote in polls in this forum
You cannot attach files in this forum
You cannot download files in this forum