Безупречная жизнь / Uma Vida Sublime (2018) WEB-DLRip AVC | iTunes

Reply to topic
 
Author Message

Monk ®

Gender: Male

Longevity: 8 months 7 days

Posts: 7494

Location: Казань

Post 27-Nov-2018 12:39

[Quote]

Безупречная жизнь / Uma Vida Sublime Год выпуска: 2018
Жанр: Триллер
Выпущено: Португалия, Filmógrafo,Cine-Clube de Avanca
Режиссер: Луиш Диого
В ролях: Эрик Да Силва, Сюзи Филипе, Руй Оливейра, Пауло Калатре, Вальдемар Сантош, Мафалда, Жоржи Ролла, Тьяго Морейра, Анжела Маркус, Тереза Чавес
О фильме: Казалось бы, жизнь улыбается Жилу Морейре. У него большой дом, отличный автомобиль и непыльная работа. Однако жена изводит Жила своими придирками, дочери его ни в грош не ставят и только клянчат деньги на новые покупки, а сам он изнывает от скуки на рабочем месте. Однажды этому безрадостному существованию приходит конец. Жил берется помочь незнакомцу. Он садится в его машину, чтобы показать дорогу к ближайшему ресторанчику, не догадываясь, что его подстерегает смертельная опасность...

Качество: WEB-DLRip AVC
Видео: MPEG-4 AVC, 1770 Кбит/с, 1024x552
Аудио: Русский (AC3, 2 ch, 192 Кбит/с)
Продолжительность: 01:44:08
Перевод: Профессиональный многоголосый [iTunes]

Скриншоты


MediaInfo

Общее
Уникальный идентификатор : 189157814478244816685491864171049741498 (0x8E4E784C249A83B4B996C04831BD6CBA)
Полное имя : D:\Безупречная жизнь.2018.WEB-DLRip (AVC).mkv
Формат : Matroska
Версия формата : Version 2
Размер файла : 1,45 Гбайт
Продолжительность : 1 ч. 45 м.
Общий поток : 1963 Кбит/сек
Дата кодирования : UTC 2018-11-26 19:04:18
Программа кодирования : mkvmerge v7.8.0 ('River Man') 32bit built on Apr 3 2015 12:11:22
Библиотека кодирования : libebml v1.3.1 + libmatroska v1.4.2
Видео
Идентификатор : 1
Формат : AVC
Формат/Информация : Advanced Video Codec
Профиль формата : High@L4.1
Настройки формата : CABAC / 10 Ref Frames
Параметр CABAC формата : Да
Параметр RefFrames формата : 10 кадров
Идентификатор кодека : V_MPEG4/ISO/AVC
Продолжительность : 1 ч. 45 м.
Битрейт : 1770 Кбит/сек
Ширина : 1024 пикселя
Высота : 552 пикселя
Соотношение сторон : 1,85:1
Режим частоты кадров : Постоянный
Частота кадров : 24,000 кадра/сек
Цветовое пространство : YUV
Субдискретизация насыщенности : 4:2:0
Битовая глубина : 8 бит
Тип развёртки : Прогрессивная
Бит/(Пиксели*Кадры) : 0.130
Размер потока : 1,28 Гбайт (88%)
Библиотека кодирования : x264 core 146 r2538 121396c
Настройки программы : cabac=1 / ref=10 / deblock=1:-1:-1 / analyse=0x3:0x111 / me=umh / subme=9 / psy=1 / psy_rd=1.00:0.10 / mixed_ref=1 / me_range=32 / chroma_me=0 / trellis=2 / 8x8dct=1 / cqm=0 / deadzone=21,11 / fast_pskip=0 / chroma_qp_offset=-3 / threads=6 / lookahead_threads=1 / sliced_threads=0 / nr=0 / decimate=0 / interlaced=0 / bluray_compat=0 / constrained_intra=0 / bframes=10 / b_pyramid=2 / b_adapt=2 / b_bias=0 / direct=3 / weightb=1 / open_gop=0 / weightp=2 / keyint=250 / keyint_min=23 / scenecut=40 / intra_refresh=0 / rc_lookahead=50 / rc=2pass / mbtree=1 / bitrate=1770 / ratetol=1.0 / qcomp=0.60 / qpmin=0 / qpmax=69 / qpstep=4 / cplxblur=20.0 / qblur=0.5 / ip_ratio=1.40 / aq=1:1.00
Default : Да
Forced : Нет
Аудио
Идентификатор : 2
Формат : AC-3
Формат/Информация : Audio Coding 3
Коммерческое название : Dolby Digital
Идентификатор кодека : A_AC3
Продолжительность : 1 ч. 45 м.
Вид битрейта : Постоянный
Битрейт : 192 Кбит/сек
Каналы : 2 канала
Channel layout : L R
Частота : 48,0 КГц
Частота кадров : 31,250 кадров/сек (1536 SPF)
Битовая глубина : 16 бит
Метод сжатия : С потерями
Размер потока : 145 Мбайт (10%)
ServiceKind/String : Complete Main
Default : Да
Forced : Нет
[Profile] [PM]
Display posts:    
Reply to topic

Current time is: 22-Jul 05:51

All times are UTC + 3



You cannot post new topics in this forum
You cannot reply to topics in this forum
You cannot edit your posts in this forum
You cannot delete your posts in this forum
You cannot vote in polls in this forum
You cannot attach files in this forum
You cannot download files in this forum