Discovery. Аляска: Семья из леса / Alaskan Bush People [1-6 сезоны: 1-71 серии из 71] (2014-2018) HDTVRip от GeneralFilm

Reply to topic
 
Author Message

Starik60 ®

Gender: Male

Longevity: 7 months 7 days

Posts: 137

Location: Москва, Россия

Post 27-Nov-2018 13:00

[Quote]

Аляска: семья из леса / Alaskan Bush People
Год выпуска: 2014-2018
Жанр: Документальный, выживание, история
Выпущено: США, Discovery Channel
Режиссер: Т.Дж. Шанкс, Джейсон Берман, Эзра Эпвелл
В ролях: Билл Браун, Гэйб Браун, Мэтт Браун
О фильме: Среди лесов Аляски живет семья, которой чужды прелести цивилизации и которая предпочитает глушь и уединение. Билли Браун, его жена Эми и их семеро детей, пять мальчиков и две девочки, поселились так далеко, что других людей они видят не чаще, чем раз в полгода. Члены этой семьи называют себя «волчьей стаей» – познакомьтесь с ними, посмотрев программу на Discovery Channel.

Качество: HDTVRip
Видео: XviD, ~ 1540 Кбит/с, 720x400
Аудио: AC3, 2 ch, 192 Кбит/c
Продолжительность: 71 x ~ 00:44:00
Перевод: Профессиональный (одноголосый, закадровый) профессиональный (многоголосый, закадровый)

Скриншоты



MediaInfo

General
Complete name : H:\Раздачи 3\Аляска семья из леса S01-05 GeneralFilm\1 Сезон\01 Аляска семья из леса.avi
Format : AVI
Format/Info : Audio Video Interleave
File size : 535 MiB
Duration : 42 min 51 s
Overall bit rate : 1 746 kb/s
Writing application : VirtualDubMod 1.5.10.3 | www.virtualdub-fr.org || (build 2550/release)
Writing library : VirtualDubMod build 2550/release
Video
ID : 0
Format : MPEG-4 Visual
Format profile : Advanced Simple@L5
Format settings : BVOP1 / Custom Matrix
Format settings, BVOP : 1
Format settings, QPel : No
Format settings, GMC : No warppoints
Format settings, Matrix : Custom
Codec ID : XVID
Codec ID/Hint : XviD
Duration : 42 min 51 s
Bit rate : 1 542 kb/s
Width : 720 pixels
Height : 400 pixels
Display aspect ratio : 16:9
Frame rate : 30.000 FPS
Color space : YUV
Chroma subsampling : 4:2:0
Bit depth : 8 bits
Scan type : Progressive
Compression mode : Lossy
Bits/(Pixel*Frame) : 0.179
Stream size : 473 MiB (88%)
Writing library : XviD 73
Audio
ID : 1
Format : AC-3
Format/Info : Audio Coding 3
Commercial name : Dolby Digital
Codec ID : 2000
Duration : 42 min 51 s
Bit rate mode : Constant
Bit rate : 192 kb/s
Channel(s) : 2 channels
Channel layout : L R
Sampling rate : 48.0 kHz
Frame rate : 31.250 FPS (1536 SPF)
Bit depth : 16 bits
Compression mode : Lossy
Stream size : 58.9 MiB (11%)
Alignment : Split accross interleaves
Interleave, duration : 33 ms (1.00 video frame)
Interleave, preload duratio : 500 ms
Service kind : Complete Main
Благодарю за отличный постер ValkiriaGF
Релиз от:
[Profile] [PM]
Display posts:    
Reply to topic

Current time is: 20-Jun 11:20

All times are UTC + 3



You cannot post new topics in this forum
You cannot reply to topics in this forum
You cannot edit your posts in this forum
You cannot delete your posts in this forum
You cannot vote in polls in this forum
You cannot attach files in this forum
You cannot download files in this forum